<?xml version="1.0" standalone="no"?>
<!DOCTYPE svg PUBLIC "-//W3C//DTD SVG 1.1//EN" "http://www.w3.org/Graphics/SVG/1.1/DTD/svg11.dtd" >
<svg xmlns="http://www.w3.org/2000/svg" xmlns:xlink="http://www.w3.org/1999/xlink" version="1.1">
<metadata>
Created by FontForge 20170731 at Tue Jun 20 08:22:30 2023
 By Aleksey,,,
Part of the digitally encoded machine readable outline data for producing the Typefaces provided is copyrighted (c) 2003 - 2006 Linotype GmbH, www.linotype.com. All rights reserved. This software is the property of Linotype GmbH, and may not be reproduced, modified, disclosed or transferred without the express written approval of Linotype GmbH. Copyright (c) 1988, 1990, 1993 Adobe Systems Incorporated. All Rights Reserved. Helvetica is a trademark of Heidelberger Druckmaschinen AG, exclusively licensed through Linotype GmbH, and may be registered in certain jurisdictions. This typeface is original artwork of Linotype Design Studio. The design may be protected in certain jurisdictions.
</metadata>
<defs>
<font id="HelveticaNeueLTPro-Bd" horiz-adv-x="1214" >
  <font-face 
    font-family="HelveticaNeueLT Pro 75 Bd"
    font-weight="700"
    font-stretch="normal"
    units-per-em="2048"
    panose-1="2 11 8 4 2 2 2 2 2 4"
    ascent="1462"
    descent="-586"
    x-height="1059"
    cap-height="1462"
    bbox="-340 -444 2208 2023"
    underline-thickness="102"
    underline-position="-307"
    unicode-range="U+000D-FB02"
  />
<missing-glyph horiz-adv-x="1048" 
d="M455 240h114v137h-114v-137zM461 479h94q0 107 12 148q11 38 88 106q75 69 102 123t27 123q0 120 -72 194t-182 74q-115 0 -189 -69.5t-87 -210.5l102 -17q11 100 56 147.5t112 47.5q64 0 110 -50.5t46 -123.5q0 -41 -19.5 -75.5t-82.5 -94.5q-67 -67 -95 -121
q-26 -51 -26 -166zM946 102h-844v1264h844v-1264zM1049 1470h-1049v-1470h1049v1470z" />
    <glyph glyph-name="IJ" unicode="IJ" horiz-adv-x="1736" 
d="M141 0v1462h322v-1462h-322zM1595 1462v-1001q0 -46 -4 -87t-16.5 -93t-33.5 -94.5t-58.5 -85t-87 -71.5t-123.5 -47t-164 -18q-95 0 -179 26.5t-152.5 79.5t-109 142.5t-40.5 204.5v127h291v-66q0 -118 40 -180.5t146 -62.5q35 0 62.5 8.5t45.5 20t30.5 33.5t18.5 39
t9 46t3.5 45.5t0.5 46.5v987h321z" />
    <glyph glyph-name="ij" unicode="ij" horiz-adv-x="1044" 
d="M410 1462v-239h-291v239h291zM119 0v1059h291v-1059h-291zM903 1462v-239h-291v239h291zM436 -365v240q21 -8 64 -8q52 0 82 19.5t30 74.5v1098h291v-1112q0 -113 -31.5 -180.5t-114 -103.5t-227.5 -36q-53 0 -94 8z" />
    <glyph glyph-name="napostrophe" unicode="&#x22;n" horiz-adv-x="1239" 
d="M135 0v1059h277v-148h6q53 87 139.5 131.5t183.5 44.5q113 0 190.5 -30.5t119.5 -90.5t59.5 -135.5t17.5 -179.5v-651h-290v598q0 134 -43 197t-144 63q-119 0 -172 -71t-53 -232v-555h-291zM-25 1462v191h297v-150q0 -50 -14.5 -86t-37 -56t-60.5 -31.5t-74.5 -15
t-89.5 -3.5v75q51 5 79 22t38 54h-138z" />
    <glyph glyph-name="fi" unicode="fi" horiz-adv-x="1251" 
d="M174 0v864h-174v195h174v82q0 146 90.5 233.5t263.5 87.5q29 0 84.5 -3.5t69.5 -4.5v-217q-53 6 -107 6q-60 0 -85 -27.5t-25 -93.5v-63h201v-195h-201v-864h-291zM842 0v1059h291v-1059h-291zM1133 1462v-239h-291v239h291z" />
    <glyph glyph-name="fl" unicode="fl" horiz-adv-x="1251" 
d="M174 0v864h-174v195h174v82q0 146 90.5 233.5t263.5 87.5q29 0 84.5 -3.5t69.5 -4.5v-217q-53 6 -107 6q-60 0 -85 -27.5t-25 -93.5v-63h201v-195h-201v-864h-291zM842 0v1462h291v-1462h-291z" />
    <glyph glyph-name=".notdef" horiz-adv-x="1048" 
d="M455 240h114v137h-114v-137zM461 479h94q0 107 12 148q11 38 88 106q75 69 102 123t27 123q0 120 -72 194t-182 74q-115 0 -189 -69.5t-87 -210.5l102 -17q11 100 56 147.5t112 47.5q64 0 110 -50.5t46 -123.5q0 -41 -19.5 -75.5t-82.5 -94.5q-67 -67 -95 -121
q-26 -51 -26 -166zM946 102h-844v1264h844v-1264zM1049 1470h-1049v-1470h1049v1470z" />
    <glyph glyph-name=".null" horiz-adv-x="1024" 
 />
    <glyph glyph-name=".null" horiz-adv-x="1024" 
 />
    <glyph glyph-name="nonmarkingreturn" horiz-adv-x="682" 
 />
    <glyph glyph-name="CR" unicode="&#xd;" horiz-adv-x="0" 
 />
    <glyph glyph-name="space" unicode=" " horiz-adv-x="569" 
 />
    <glyph glyph-name="exclam" unicode="!" horiz-adv-x="569" 
d="M125 0v315h321v-315h-321zM436 1462v-393l-80 -631h-145l-78 631v393h303z" />
    <glyph glyph-name="quotedbl" unicode="&#x22;" horiz-adv-x="948" 
d="M174 805v657h219v-657h-219zM555 805v657h219v-657h-219z" />
    <glyph glyph-name="numbersign" unicode="#" horiz-adv-x="1138" 
d="M694 844h-196l-37 -254h198zM180 0l58 406h-170v184h194l37 254h-170v184h195l57 406h199l-58 -406h199l55 406h199l-55 -406h151v-184h-178l-35 -254h152v-184h-179l-55 -406h-198l55 406h-197l-57 -406h-199z" />
    <glyph glyph-name="dollar" unicode="$" horiz-adv-x="1138" 
d="M-2 475h291q-1 -111 59.5 -180.5t159.5 -89.5v428q-16 7 -66 18q-70 18 -122 36.5t-109.5 51.5t-93.5 74t-60 104t-24 142q0 102 39 184t106.5 135t151 83t178.5 36v158h121v-158q95 -11 173.5 -40.5t142 -80.5t101.5 -131t44 -184h-291q-1 82 -51 139t-119 57v-362
q19 -5 55 -14.5t49 -12.5q83 -23 148.5 -55t108 -63.5t72.5 -73t45 -73.5t23 -76t9.5 -69.5t1.5 -64.5t-13.5 -87t-50 -106.5t-91.5 -106.5t-148 -84t-209 -44v-174h-121v174q-464 35 -510 510zM629 598v-393q87 9 154 60t67 141q0 78 -48.5 118.5t-172.5 73.5zM508 924v333
q-75 0 -129.5 -44.5t-54.5 -125.5q0 -67 42 -103t142 -60z" />
    <glyph glyph-name="percent" unicode="%" horiz-adv-x="2048" 
d="M1419 373q0 -31 0.5 -49.5t4 -53t12 -55.5t22 -44t37.5 -34.5t55 -11.5q136 0 136 246q0 245 -127 245q-31 0 -55.5 -11t-39 -31.5t-24.5 -43t-14 -53t-5.5 -53t-1.5 -51.5zM1210 375q0 175 88.5 285t260.5 110q92 0 159 -31t104.5 -87.5t54.5 -126.5t17 -158
q0 -85 -20.5 -155.5t-62 -125t-108.5 -85t-155 -30.5q-92 0 -159 31t-105 88t-56 127.5t-18 157.5zM520 -45l848 1524h174l-844 -1524h-178zM362 1053q0 -30 1 -48.5t4 -50.5t12 -52.5t22.5 -42t37.5 -32t55 -10.5q30 0 53.5 11t38 31t23.5 42t13 51.5t5.5 51t1.5 47.5
q0 258 -127 258q-140 0 -140 -256zM154 1057q0 115 36 204.5t116 145t196 55.5q92 0 159 -32t104.5 -90.5t55 -130t17.5 -160.5q0 -176 -86.5 -280.5t-259.5 -104.5q-338 0 -338 393z" />
    <glyph glyph-name="ampersand" unicode="&#x26;" horiz-adv-x="1402" 
d="M1069 0l-119 145q-177 -174 -411 -174q-133 0 -239.5 51.5t-170 152.5t-63.5 235q0 143 91.5 250t235.5 174q-70 84 -104.5 153t-34.5 158q0 147 113.5 240.5t267.5 93.5q173 0 287 -92.5t114 -258.5q0 -223 -260 -364l189 -232q39 68 53 175h252q-22 -209 -142 -361
l297 -346h-356zM797 340l-250 305q-88 -37 -146.5 -98t-58.5 -144q0 -79 63 -135.5t146 -56.5q131 0 246 129zM782 1145q0 57 -39.5 98t-93.5 41q-55 0 -93 -36.5t-38 -92.5q0 -22 5.5 -44.5t11 -37t21 -38t22 -32t28.5 -35t27 -32.5q74 46 111.5 91.5t37.5 117.5z" />
    <glyph glyph-name="quotesingle" unicode="'" horiz-adv-x="569" 
d="M176 805v657h219v-657h-219z" />
    <glyph glyph-name="parenleft" unicode="(" horiz-adv-x="606" 
d="M377 1497h244q-224 -420 -224 -928q0 -516 221 -942h-241q-271 448 -271 922q0 242 70.5 500.5t200.5 447.5z" />
    <glyph glyph-name="parenright" unicode=")" horiz-adv-x="606" 
d="M229 -373h-243q223 418 223 926q0 518 -221 944h241q130 -215 200.5 -451t70.5 -473q0 -240 -71 -501t-200 -445z" />
    <glyph glyph-name="asterisk" unicode="*" horiz-adv-x="833" 
d="M496 1462v-256l237 90l55 -157l-241 -80l151 -201l-135 -100l-151 211l-144 -211l-137 100l152 201l-238 80l55 157l232 -90v256h164z" />
    <glyph glyph-name="plus" unicode="+" horiz-adv-x="1228" 
d="M725 1034v-407h408v-219h-408v-408h-219v408h-408v219h408v407h219z" />
    <glyph glyph-name="comma" unicode="," horiz-adv-x="569" 
d="M125 0v315h321v-315q0 -136 -91.5 -227.5t-227.5 -112.5v147q64 12 106.5 68.5t38.5 124.5h-147z" />
    <glyph glyph-name="hyphen" unicode="-" horiz-adv-x="833" 
d="M109 434v250h616v-250h-616z" />
    <glyph glyph-name="period" unicode="." horiz-adv-x="569" 
d="M123 0v315h321v-315h-321z" />
    <glyph glyph-name="slash" unicode="/" horiz-adv-x="759" 
d="M-23 -35l572 1532h233l-571 -1532h-234z" />
    <glyph glyph-name="zero" unicode="0" horiz-adv-x="1138" 
d="M334 723q0 -38 0.5 -60.5t2.5 -68.5t5.5 -76.5t12 -74t19.5 -73t29 -62t40.5 -52t54 -32.5t69.5 -13q49 0 88 21t63.5 51t42 80t26 89.5t13 99.5t5 90.5t0.5 80.5q0 41 -0.5 65.5t-3 75t-9 84.5t-17 80t-28.5 77t-42 60t-59.5 43.5t-78.5 14.5q-38 0 -70 -13t-54.5 -32
t-40.5 -52t-29.5 -61t-19 -72.5t-11.5 -72.5t-6 -74.5t-2 -65v-57.5zM43 723q0 163 27.5 291t74.5 211t114.5 137.5t143 77t164.5 22.5t165.5 -22.5t144.5 -77t115.5 -137.5t75.5 -211t28 -291q0 -167 -28 -297t-75.5 -214.5t-115.5 -139.5t-144 -78t-166 -23
q-89 0 -164.5 23t-143 78t-114.5 139.5t-74.5 214.5t-27.5 297z" />
    <glyph glyph-name="one" unicode="1" horiz-adv-x="1138" 
d="M803 1434v-1434h-291v930h-360v219q79 -2 147 12t125.5 46t96 90t50.5 137h232z" />
    <glyph glyph-name="two" unicode="2" horiz-adv-x="1138" 
d="M354 883h-278q-5 166 52.5 295.5t178.5 206.5t289 77q133 0 243.5 -52.5t179 -156t68.5 -239.5q0 -89 -25.5 -163t-70.5 -127.5t-101 -99t-121.5 -87.5t-126 -82t-122 -93.5t-102.5 -111.5h678v-250h-1053q0 81 15.5 150t46.5 125.5t68 103t91.5 92t105 82t118.5 83.5
l3 1.5t2.5 1.5t2.5 2l64.5 43t70.5 48.5t61 50t56 60t34 67t15 81.5q0 101 -60 161t-155 60q-62 0 -108 -29.5t-71 -78.5t-37 -104.5t-12 -116.5z" />
    <glyph glyph-name="three" unicode="3" horiz-adv-x="1138" 
d="M467 649v205q38 -1 79.5 -1t82 12t72.5 30.5t51.5 54t19.5 82.5q0 88 -59.5 139.5t-143.5 51.5q-107 0 -165 -71t-56 -185h-276q8 224 141 359.5t354 135.5q69 0 138 -16.5t131 -50t109.5 -80t75.5 -111.5t28 -139q0 -106 -52 -185.5t-149 -107.5v-4q118 -26 186 -114.5
t68 -211.5q0 -109 -44 -200t-118 -149t-170 -90t-201 -32q-245 0 -390.5 139.5t-141.5 383.5h276q5 -125 68.5 -204t183.5 -79q100 0 167 62t67 163q0 39 -7.5 70.5t-24 53t-33.5 37.5t-45.5 25.5t-49 15.5t-56 8t-54.5 2.5t-54 0.5h-8z" />
    <glyph glyph-name="four" unicode="4" horiz-adv-x="1138" 
d="M639 571v498h-6l-371 -498h377zM639 0v332h-606v266l622 836h260v-863h191v-239h-191v-332h-276z" />
    <glyph glyph-name="five" unicode="5" horiz-adv-x="1138" 
d="M1024 1434v-240h-592l-57 -326l4 -4q59 59 125.5 85t154.5 26q103 0 188 -38.5t140 -105t85 -155t30 -189.5q0 -144 -73 -264.5t-195.5 -187.5t-264.5 -64q-106 0 -200 29.5t-168 84.5t-118 143t-46 198h291q11 -97 75 -156t160 -59q110 0 179 82t69 194q0 116 -67 192.5
t-181 76.5q-76 0 -125.5 -27t-93.5 -88h-262l141 793h801z" />
    <glyph glyph-name="six" unicode="6" horiz-adv-x="1138" 
d="M586 743q-111 0 -171.5 -76.5t-60.5 -189.5q0 -106 63.5 -186t168.5 -80q99 0 159 78.5t60 183.5q0 71 -22.5 130.5t-73.5 99.5t-123 40zM1071 1065h-276q-14 75 -67 126.5t-126 51.5q-60 0 -108 -30.5t-77.5 -77t-49.5 -107.5t-28.5 -114.5t-10.5 -106.5l4 -4
q59 84 137.5 122t185.5 38q91 0 179.5 -40t150.5 -108q111 -129 111 -319q0 -146 -62.5 -265.5t-178 -189.5t-261.5 -70q-91 0 -167 22.5t-132 61t-100 94.5t-72 119.5t-46.5 139t-26 150t-7.5 155.5q0 109 19 213t62.5 202.5t107 171.5t160 117.5t214.5 44.5
q189 0 315 -104.5t150 -292.5z" />
    <glyph glyph-name="seven" unicode="7" horiz-adv-x="1138" 
d="M1059 1434v-250q-109 -95 -199 -241.5t-147 -307t-89 -324.5t-34 -311h-311q24 315 149 613.5t332 549.5h-680v271h979z" />
    <glyph glyph-name="eight" unicode="8" horiz-adv-x="1138" 
d="M352 1044q0 -88 63 -138t156 -50q94 0 154.5 49.5t60.5 138.5q0 32 -9 63t-30.5 63.5t-66.5 52.5t-109 20q-92 0 -155.5 -53t-63.5 -146zM88 1071q0 93 42.5 169.5t112 123.5t154.5 72.5t174 25.5q102 0 186 -27t137 -68.5t90 -94t52 -102t15 -93.5q0 -107 -54 -186.5
t-155 -114.5v-4q128 -29 198 -121.5t70 -228.5q0 -110 -46 -198t-122.5 -142t-171 -82.5t-197.5 -28.5q-84 0 -162.5 16.5t-148 52.5t-121.5 88t-82 127t-30 165q0 136 71 228.5t199 123.5v4q-102 29 -156.5 108t-54.5 187zM319 434q0 -108 73.5 -176t180.5 -68
q105 0 175.5 68t70.5 174q0 101 -71.5 165.5t-174.5 64.5q-110 0 -182 -60.5t-72 -167.5z" />
    <glyph glyph-name="nine" unicode="9" horiz-adv-x="1138" 
d="M553 690q111 0 171 76.5t60 189.5q0 107 -63 187t-168 80q-99 0 -159 -78.5t-60 -183.5q0 -71 22.5 -130.5t73.5 -100t123 -40.5zM68 369h276q14 -75 67 -127t126 -52q51 0 93 21t70.5 58t49.5 80t33 95t18.5 95t9.5 88l-4 4q-111 -160 -324 -160q-92 0 -179.5 39.5
t-149.5 107.5q-111 129 -111 320q0 146 62 265t177.5 189t262.5 70q126 0 223.5 -43t158.5 -113t100 -168.5t54 -200t15 -216.5q0 -109 -19 -213t-62.5 -202.5t-107 -172t-160.5 -118t-215 -44.5q-189 0 -314.5 105t-149.5 293z" />
    <glyph glyph-name="colon" unicode=":" horiz-adv-x="569" 
d="M446 1040v-315h-321v315h321zM125 0v315h321v-315h-321z" />
    <glyph glyph-name="semicolon" unicode=";" horiz-adv-x="569" 
d="M446 1040v-315h-321v315h321zM125 0v315h321v-315q0 -136 -91.5 -227.5t-227.5 -112.5v147q64 12 106.5 68.5t38.5 124.5h-147z" />
    <glyph glyph-name="less" unicode="&#x3c;" horiz-adv-x="1228" 
d="M1135 1053v-236l-752 -299l752 -299v-235l-1041 413v242z" />
    <glyph glyph-name="equal" unicode="=" horiz-adv-x="1228" 
d="M1133 408v-220h-1035v220h1035zM1133 846v-219h-1035v219h1035z" />
    <glyph glyph-name="greater" unicode="&#x3e;" horiz-adv-x="1228" 
d="M94 -16v235l752 299l-752 299v236l1041 -414v-242z" />
    <glyph glyph-name="question" unicode="?" horiz-adv-x="1138" 
d="M395 0v315h322v-315h-322zM367 991h-301q5 223 140 364.5t357 141.5q111 0 200.5 -26.5t146 -67.5t94.5 -94.5t53.5 -105t15.5 -101.5q0 -80 -18.5 -142t-49 -102t-68 -72t-76 -59t-72 -54.5t-58 -67t-31.5 -89.5v-78h-276v92q6 72 27.5 129.5t51.5 94.5t64.5 68
t67.5 56.5t59.5 51.5t42.5 62t15 81q0 92 -45.5 138t-128.5 46q-105 0 -158 -75t-53 -191z" />
    <glyph glyph-name="at" unicode="@" horiz-adv-x="1638" 
d="M1274 1116l-129 -528q-17 -57 -17 -88q0 -47 35 -47q92 0 167 108.5t75 267.5q0 158 -74.5 274t-198.5 173t-282 57q-260 0 -420 -171.5t-160 -434.5q0 -176 77.5 -313t214.5 -211t312 -74q129 0 245.5 44.5t195.5 123.5h172q-104 -159 -268 -245.5t-357 -86.5
q-161 0 -306.5 59t-251.5 160t-168 244t-62 303q0 159 62 301.5t167 244t248.5 161t300.5 59.5q139 0 268 -45.5t227.5 -125t158 -198.5t59.5 -256q0 -87 -20 -165t-53 -136.5t-75.5 -108t-88.5 -82.5t-92 -56.5t-85 -34t-68 -10.5q-65 0 -104.5 32t-44.5 84h-4
q-35 -59 -93.5 -89t-127.5 -30q-131 0 -226.5 104.5t-95.5 246.5q0 97 32.5 190.5t89.5 167t142 119t183 45.5q74 0 140 -34.5t99 -108.5l33 110h168zM596 653q0 -82 44 -132t116 -50q70 0 129.5 48t91 118.5t31.5 142.5q0 74 -46 124t-112 50q-72 0 -131.5 -47t-91 -115.5
t-31.5 -138.5z" />
    <glyph glyph-name="A" unicode="A" horiz-adv-x="1402" 
d="M700 1102l-190 -537h379l-184 537h-5zM-14 0l555 1462h329l547 -1462h-334l-110 326h-547l-115 -326h-325z" />
    <glyph glyph-name="B" unicode="B" horiz-adv-x="1441" 
d="M463 1212v-342h325q91 0 144 43t53 131q0 168 -221 168h-301zM141 0v1462h688q109 0 191.5 -18.5t146 -60t96.5 -112.5t33 -171q0 -208 -198 -305q132 -37 200 -134t68 -237q0 -107 -43 -190.5t-116.5 -133.5t-164 -75t-192.5 -25h-709zM463 651v-401h344q237 0 237 192
q0 209 -231 209h-350z" />
    <glyph glyph-name="C" unicode="C" horiz-adv-x="1517" 
d="M1427 971h-311q-17 109 -109 182.5t-210 73.5q-84 0 -152 -28t-113 -75t-75.5 -112t-44 -136.5t-13.5 -150.5q0 -76 13.5 -145t44 -132.5t75.5 -110t113 -74t152 -27.5q143 0 227.5 87.5t103.5 239.5h312q-25 -275 -199 -436.5t-444 -161.5q-165 0 -302 59.5
t-227.5 162.5t-140 241.5t-49.5 296.5q0 218 84.5 392t249.5 277t385 103q161 0 295.5 -60t225 -181t109.5 -285z" />
    <glyph glyph-name="D" unicode="D" horiz-adv-x="1517" 
d="M463 1192v-922h287q73 0 136 24t115.5 73.5t82.5 137t30 204.5q0 115 -22 201t-70 150.5t-131 98t-199 33.5h-229zM141 0v1462h631q144 0 264 -45.5t210 -134t140 -227.5t50 -316q0 -161 -41.5 -294.5t-122.5 -233.5t-209 -155.5t-291 -55.5h-631z" />
    <glyph glyph-name="E" unicode="E" horiz-adv-x="1327" 
d="M141 0v1462h1094v-270h-772v-313h708v-250h-708v-359h788v-270h-1110z" />
    <glyph glyph-name="F" unicode="F" 
d="M141 0v1462h1028v-270h-706v-338h612v-250h-612v-604h-322z" />
    <glyph glyph-name="G" unicode="G" horiz-adv-x="1554" 
d="M1231 0l-33 166q-157 -201 -401 -201q-165 0 -302 59.5t-227.5 162.5t-140 241.5t-49.5 296.5q0 218 84.5 392t249.5 277t385 103q113 0 218 -34.5t189.5 -98t140.5 -162.5t68 -221h-307q-29 121 -110 183.5t-199 62.5q-84 0 -152 -28t-113 -75t-75.5 -112t-44 -136.5
t-13.5 -150.5q0 -76 13.5 -145t44 -132.5t75.5 -110t113 -74t152 -27.5q158 0 246 80.5t102 234.5h-324v240h615v-791h-205z" />
    <glyph glyph-name="H" unicode="H" horiz-adv-x="1517" 
d="M141 0v1462h322v-561h592v561h321v-1462h-321v631h-592v-631h-322z" />
    <glyph glyph-name="I" unicode="I" horiz-adv-x="604" 
d="M141 0v1462h322v-1462h-322z" />
    <glyph glyph-name="J" unicode="J" horiz-adv-x="1138" 
d="M997 1462v-1001q0 -46 -4 -87t-16.5 -93t-33.5 -94.5t-58.5 -85t-87 -71.5t-123.5 -47t-164 -18q-95 0 -179 26.5t-152.5 79.5t-109 142.5t-40.5 204.5v127h290v-66q0 -118 40.5 -180.5t146.5 -62.5q35 0 62.5 8.5t45.5 20t30.5 33.5t18.5 39t9 46t3.5 45.5t0.5 46.5v987
h321z" />
    <glyph glyph-name="K" unicode="K" horiz-adv-x="1478" 
d="M141 0v1462h322v-606l571 606h402l-572 -577l627 -885h-404l-440 657l-184 -186v-471h-322z" />
    <glyph glyph-name="L" unicode="L" 
d="M141 0v1462h322v-1192h713v-270h-1035z" />
    <glyph glyph-name="M" unicode="M" horiz-adv-x="1857" 
d="M141 0v1462h453l342 -1005h4l324 1005h452v-1462h-301v1036h-4l-358 -1036h-248l-359 1026h-4v-1026h-301z" />
    <glyph glyph-name="N" unicode="N" horiz-adv-x="1517" 
d="M141 0v1462h320l610 -981h4v981h301v-1462h-321l-609 979h-4v-979h-301z" />
    <glyph glyph-name="O" unicode="O" horiz-adv-x="1593" 
d="M399 725q0 -76 13.5 -145t44 -132.5t75.5 -110t113 -74t152 -27.5q104 0 183 41.5t124.5 112.5t67.5 155t22 180q0 79 -13.5 150.5t-43.5 136.5t-75 112t-113 75t-152 28t-152 -28t-113 -75t-75.5 -112t-44 -136.5t-13.5 -150.5zM78 725q0 218 84.5 392t249.5 277
t385 103t385 -103t249.5 -277t84.5 -392q0 -158 -49.5 -296.5t-140 -241.5t-227.5 -162.5t-302 -59.5t-302 59.5t-227.5 162.5t-140 241.5t-49.5 296.5z" />
    <glyph glyph-name="P" unicode="P" horiz-adv-x="1366" 
d="M463 1212v-438h250q48 0 86 5t76 19t63.5 37.5t41 63.5t15.5 94t-15.5 94t-41 63.5t-63.5 37.5t-76 19t-86 5h-250zM141 0v1462h660q107 0 193.5 -26t143.5 -70.5t96 -105t56 -127t17 -140.5t-17 -140.5t-56 -127t-96 -105t-143.5 -70.5t-193.5 -26h-338v-524h-322z" />
    <glyph glyph-name="Q" unicode="Q" horiz-adv-x="1593" 
d="M788 381l150 160l166 -152q90 121 90 336q0 79 -13.5 150.5t-43.5 136.5t-75 112t-113 75t-152 28t-152 -28t-113 -75t-75.5 -112t-44 -136.5t-13.5 -150.5q0 -76 13.5 -145t44 -132.5t75.5 -110t113 -74t152 -27.5h17.5h19.5t18 0.5t18.5 1t16.5 2t16 3.5t12.5 5.5
t10.5 7.5zM1507 20l-149 -157l-207 188q-150 -86 -354 -86q-165 0 -302 59.5t-227.5 162.5t-140 241.5t-49.5 296.5q0 218 84.5 392t249.5 277t385 103t385 -103t249.5 -277t84.5 -392q0 -323 -191 -539z" />
    <glyph glyph-name="R" unicode="R" horiz-adv-x="1478" 
d="M463 1212v-411h352q111 0 166 50.5t55 158.5q0 104 -55 153t-166 49h-352zM141 0v1462h789q192 0 310 -116.5t118 -286.5q0 -274 -232 -367v-4q194 -53 213 -342q1 -12 3 -61.5t4.5 -79.5t8.5 -73t17.5 -76t28.5 -56h-322q-17 41 -25.5 98.5t-14.5 136t-11 115.5
q-18 119 -71.5 170t-172.5 51h-321v-571h-322z" />
    <glyph glyph-name="S" unicode="S" horiz-adv-x="1329" 
d="M49 485h311q0 -137 91.5 -203.5t232.5 -66.5q48 0 93 8t91 26.5t73.5 56.5t27.5 91q0 33 -12 60t-38 48t-53 36t-72 29t-79 23t-90 23t-90 23q-73 18 -129.5 37.5t-117 54t-100 77t-65 106t-25.5 141.5q0 108 48 195t127 139.5t174.5 80t197.5 27.5q94 0 178.5 -16
t159.5 -52.5t129.5 -90.5t86.5 -133.5t32 -178.5h-311q-4 63 -27 107.5t-63.5 68.5t-88.5 34.5t-110 10.5q-56 0 -103.5 -15t-82.5 -54t-35 -97q0 -80 70 -113.5t354 -104.5l12 -3q38 -9 59.5 -14.5t73 -23t85.5 -36.5t78.5 -53.5t71.5 -74t46.5 -98t19.5 -126.5
q0 -208 -159 -338.5t-449 -130.5q-125 0 -235.5 31.5t-199 93t-139.5 163.5t-49 232z" />
    <glyph glyph-name="T" unicode="T" horiz-adv-x="1251" 
d="M465 0v1192h-438v270h1198v-270h-439v-1192h-321z" />
    <glyph glyph-name="U" unicode="U" horiz-adv-x="1517" 
d="M1382 1462v-909q0 -291 -162.5 -439.5t-461.5 -148.5q-302 0 -462.5 147t-160.5 441v909h322v-909q0 -53 6 -95t25 -85.5t51.5 -72t88 -46.5t130.5 -18q168 0 235.5 74.5t67.5 242.5v909h321z" />
    <glyph glyph-name="V" unicode="V" horiz-adv-x="1290" 
d="M1307 1462l-486 -1462h-362l-475 1462h331l326 -1028h4l330 1028h332z" />
    <glyph glyph-name="W" unicode="W" horiz-adv-x="1933" 
d="M1927 1462l-393 -1462h-320l-247 995h-4l-244 -995h-326l-387 1462h322l231 -995h4l254 995h301l250 -1007h4l240 1007h315z" />
    <glyph glyph-name="X" unicode="X" horiz-adv-x="1366" 
d="M-12 0l512 766l-471 696h372l287 -467l297 467h352l-469 -698l510 -764h-383l-319 506l-326 -506h-362z" />
    <glyph glyph-name="Y" unicode="Y" horiz-adv-x="1366" 
d="M520 0v569l-538 893h362l342 -577l340 577h358l-542 -901v-561h-322z" />
    <glyph glyph-name="Z" unicode="Z" horiz-adv-x="1327" 
d="M47 0v254l784 938h-722v270h1151v-254l-785 -938h805v-270h-1233z" />
    <glyph glyph-name="bracketleft" unicode="[" horiz-adv-x="681" 
d="M139 -373v1870h541v-229h-250v-1411h250v-230h-541z" />
    <glyph glyph-name="backslash" unicode="\" horiz-adv-x="759" 
d="M211 1497l571 -1532h-233l-572 1532h234z" />
    <glyph glyph-name="bracketright" unicode="]" horiz-adv-x="681" 
d="M543 1497v-1870h-541v230h250v1411h-250v229h541z" />
    <glyph glyph-name="asciicircum" unicode="^" horiz-adv-x="1228" 
d="M125 645l352 789h275l352 -789h-240l-250 563l-249 -563h-240z" />
    <glyph glyph-name="underscore" unicode="_" horiz-adv-x="1024" 
d="M0 -256v102h1024v-102h-1024z" />
    <glyph glyph-name="grave" unicode="`" horiz-adv-x="530" 
d="M217 1206l-315 291h321l197 -291h-203z" />
    <glyph glyph-name="a" unicode="a" horiz-adv-x="1175" 
d="M389 733h-291q5 78 35.5 140t78 101.5t111.5 65.5t131 36.5t142 10.5q465 0 465 -301v-550q0 -177 37 -236h-295q-19 62 -21 102q-126 -131 -356 -131q-160 0 -260 81t-100 237q1 98 41 164t103 96.5t138.5 47.5t151 24t137 17t98.5 37t35 75q0 84 -49 113.5t-139 29.5
q-179 0 -193 -160zM770 410v108q-17 -15 -47.5 -25.5t-56.5 -15t-71 -10.5t-67 -10q-79 -14 -125.5 -48.5t-46.5 -107.5q0 -135 179 -135q235 0 235 244z" />
    <glyph glyph-name="b" unicode="b" horiz-adv-x="1251" 
d="M887 528q0 69 -15 129t-44 108t-78 75.5t-111 27.5t-111 -27.5t-78 -75.5t-44 -108t-15 -129q0 -92 25 -166t83 -123t140 -49t140 49t83 123t25 166zM111 0v1462h290v-532h5q52 78 140.5 117.5t192.5 39.5q82 0 158 -33.5t140 -99t102.5 -175.5t38.5 -249t-38.5 -249.5
t-102.5 -176t-140 -99.5t-158 -34q-260 0 -348 164h-4v-135h-276z" />
    <glyph glyph-name="c" unicode="c" horiz-adv-x="1175" 
d="M1116 686h-285q-27 182 -215 182q-54 0 -97 -21t-70.5 -55t-46 -79.5t-26 -92.5t-7.5 -96q0 -62 12.5 -118t39 -106t75.5 -80t114 -30q100 0 159 57.5t73 158.5h280q-29 -209 -163.5 -322t-346.5 -113q-238 0 -386 152t-148 391q0 254 144 413.5t396 159.5
q96 0 181.5 -25t155 -73.5t112.5 -126.5t49 -176z" />
    <glyph glyph-name="d" unicode="d" horiz-adv-x="1251" 
d="M862 532q0 68 -13 125.5t-41 106.5t-78 76.5t-118 27.5q-69 0 -120 -28t-80 -77t-42.5 -107t-13.5 -126q0 -65 15 -124t45 -108t80.5 -78.5t115.5 -29.5q68 0 118.5 28.5t78 78t40.5 108t13 127.5zM866 0v135h-4q-97 -164 -321 -164q-116 0 -208.5 47t-149.5 127
t-87 180.5t-30 213.5q0 109 30 206.5t87 174t148 122t204 45.5q97 0 181 -40.5t132 -116.5h4v532h291v-1462h-277z" />
    <glyph glyph-name="e" unicode="e" horiz-adv-x="1175" 
d="M350 643h473q-21 114 -74.5 169.5t-156.5 55.5q-66 0 -115.5 -23t-74.5 -60t-37 -71.5t-15 -70.5zM1114 459h-764q6 -138 71 -203.5t189 -65.5q84 0 150 42.5t80 95.5h256q-116 -357 -496 -357q-248 0 -394.5 154t-146.5 403q0 158 67.5 285t191.5 200.5t282 73.5
q105 0 193.5 -34t150 -93.5t103 -138.5t58 -171.5t9.5 -190.5z" />
    <glyph glyph-name="f" unicode="f" horiz-adv-x="681" 
d="M174 0v864h-174v195h174v82q0 146 90.5 233.5t263.5 87.5q29 0 84.5 -3.5t69.5 -4.5v-217q-53 6 -107 6q-60 0 -85 -27.5t-25 -93.5v-63h201v-195h-201v-864h-291z" />
    <glyph glyph-name="g" unicode="g" horiz-adv-x="1251" 
d="M604 250q118 0 183 85.5t65 207.5q0 68 -12.5 124t-40.5 102.5t-77.5 72.5t-117.5 26q-116 0 -175.5 -86.5t-59.5 -214.5q0 -61 12 -114.5t37.5 -100.5t73 -74.5t112.5 -27.5zM1128 1059v-991q0 -42 -4.5 -81t-19.5 -87.5t-39 -89.5t-66 -81t-98 -68t-138.5 -45
t-182.5 -17q-82 0 -159.5 20t-145.5 59.5t-112 107t-50 153.5h288q36 -146 217 -146q118 0 177 71t57 191v140h-4q-45 -81 -130.5 -122.5t-187.5 -41.5q-116 0 -204.5 41.5t-141.5 115.5t-79.5 168.5t-26.5 206.5q0 104 30 197.5t86 167t143.5 116.5t194.5 43
q108 0 186 -39.5t130 -129.5h4v141h276z" />
    <glyph glyph-name="h" unicode="h" 
d="M111 0v1462h290v-551h7q53 86 137.5 131t171.5 45q113 0 190.5 -30.5t119.5 -90.5t59.5 -135.5t17.5 -179.5v-651h-291v598q0 134 -43 197t-143 63q-119 0 -172.5 -71t-53.5 -232v-555h-290z" />
    <glyph glyph-name="i" unicode="i" horiz-adv-x="528" 
d="M410 1462v-239h-291v239h291zM119 0v1059h291v-1059h-291z" />
    <glyph glyph-name="j" unicode="j" horiz-adv-x="569" 
d="M428 1462v-239h-291v239h291zM-39 -365v240q21 -8 64 -8q52 0 82 19.5t30 74.5v1098h291v-1112q0 -113 -31.5 -180.5t-114 -103.5t-227.5 -36q-53 0 -94 8z" />
    <glyph glyph-name="k" unicode="k" horiz-adv-x="1175" 
d="M137 0v1462h291v-784l367 381h344l-400 -389l445 -670h-353l-290 473l-113 -108v-365h-291z" />
    <glyph glyph-name="l" unicode="l" horiz-adv-x="528" 
d="M119 0v1462h291v-1462h-291z" />
    <glyph glyph-name="m" unicode="m" horiz-adv-x="1855" 
d="M119 0v1059h274v-144h4q120 172 324 172q231 0 309 -176q52 76 134.5 126t185.5 50q180 0 283.5 -91t103.5 -287v-709h-291v600q0 50 -2.5 82t-12.5 69t-28.5 58t-52.5 35t-82 14q-195 0 -195 -268v-590h-291v594v15q0 115 -18 162q-36 87 -158 87q-20 0 -42.5 -5
t-51 -21.5t-50.5 -42t-37 -71t-15 -104.5v-614h-291z" />
    <glyph glyph-name="n" unicode="n" 
d="M111 0v1059h276v-148h6q53 87 140 131.5t184 44.5q113 0 190.5 -30.5t119.5 -90.5t59.5 -135.5t17.5 -179.5v-651h-291v598q0 134 -43 197t-143 63q-119 0 -172.5 -71t-53.5 -232v-555h-290z" />
    <glyph glyph-name="o" unicode="o" horiz-adv-x="1251" 
d="M369 528q0 -68 13 -125.5t41 -107t79.5 -77.5t122.5 -28q58 0 103 19t74 50.5t47.5 76t26 91.5t7.5 101q0 68 -13 125.5t-41 107.5t-80 78.5t-124 28.5q-71 0 -122.5 -28.5t-79.5 -78.5t-41 -107.5t-13 -125.5zM78 528q0 254 149 406.5t398 152.5q250 0 399.5 -152.5
t149.5 -406.5q0 -253 -149.5 -405t-399.5 -152q-249 0 -398 152.5t-149 404.5z" />
    <glyph glyph-name="p" unicode="p" horiz-adv-x="1251" 
d="M645 190q55 0 99 18.5t72 50t46.5 75t26.5 91t8 101.5q0 67 -14 126t-43 108.5t-79.5 78.5t-117.5 29q-55 0 -99 -19.5t-72 -51.5t-46.5 -76.5t-26.5 -92.5t-8 -102q0 -68 13.5 -126t42.5 -106t79.5 -76t118.5 -28zM111 -373v1432h276v-135h4q102 163 316 163
q97 0 177 -30.5t136 -83t94 -125t56 -155.5t18 -175q0 -108 -29.5 -205t-85.5 -174t-146.5 -122.5t-203.5 -45.5q-98 0 -180.5 41.5t-136.5 118.5h-5v-504h-290z" />
    <glyph glyph-name="q" unicode="q" horiz-adv-x="1251" 
d="M356 528q0 -67 13 -125t41 -107t79 -77.5t119 -28.5t118.5 27t79.5 75t42.5 106t13.5 126q0 65 -13.5 123.5t-41.5 109.5t-78 81t-115 30q-55 0 -99.5 -19t-73.5 -51t-48.5 -76t-28 -92.5t-8.5 -101.5zM1143 1059v-1432h-291v506h-4q-48 -82 -138.5 -122t-195.5 -40
q-61 0 -121.5 17.5t-120.5 59t-105 103t-73 157.5t-28 214q0 112 29.5 211.5t86.5 179.5t149.5 127t209.5 47q105 0 189.5 -39.5t131.5 -123.5h4v135h277z" />
    <glyph glyph-name="r" unicode="r" horiz-adv-x="796" 
d="M111 0v1059h276v-197h4q41 100 135 162.5t203 62.5q31 0 64 -10v-270q-45 10 -105 10q-78 0 -135 -26t-89.5 -74t-47.5 -107t-15 -133v-477h-290z" />
    <glyph glyph-name="s" unicode="s" horiz-adv-x="1099" 
d="M59 344h277q0 -88 65 -133t158 -45q74 0 132.5 33t58.5 102q0 26 -15.5 47t-40 36t-70 30t-89.5 25.5t-115 25.5q-59 14 -101 26.5t-89.5 35.5t-77 51.5t-49 72t-19.5 97.5q0 78 26.5 138.5t70 97.5t104.5 61t124 33t136 9q72 0 134.5 -10t122 -34t102.5 -61.5t72 -96.5
t36 -135h-277q-10 143 -198 143q-162 0 -162 -98q0 -22 9 -39.5t28.5 -31t40 -23t54.5 -19t60 -15t69 -15t69 -15.5q58 -13 101 -27t89.5 -38t76 -53.5t49 -75.5t19.5 -103q0 -81 -27.5 -145t-73 -105.5t-109 -68.5t-131 -38.5t-142.5 -11.5q-97 0 -181 19.5t-155.5 61
t-114.5 116.5t-47 176z" />
    <glyph glyph-name="t" unicode="t" horiz-adv-x="720" 
d="M479 1376v-317h213v-195h-213v-524q0 -74 24.5 -98.5t98.5 -24.5q54 0 90 8v-227q-61 -10 -170 -10q-59 0 -104.5 5.5t-90.5 22t-74 43.5t-47 73t-18 108v624h-176v195h176v317h291z" />
    <glyph glyph-name="u" unicode="u" 
d="M1104 1059v-1059h-277v147h-6q-53 -87 -139.5 -131.5t-183.5 -44.5q-113 0 -190.5 30.5t-119.5 91t-59.5 136t-17.5 179.5v651h290v-598q0 -134 43 -197t144 -63q119 0 172 71t53 232v555h291z" />
    <glyph glyph-name="v" unicode="v" horiz-adv-x="1064" 
d="M1055 1059l-359 -1059h-323l-363 1059h305l224 -723h4l223 723h289z" />
    <glyph glyph-name="w" unicode="w" horiz-adv-x="1667" 
d="M1655 1059l-334 -1059h-299l-188 711h-5l-180 -711h-301l-336 1059h307l195 -719h4l176 719h283l180 -717h4l195 717h299z" />
    <glyph glyph-name="x" unicode="x" horiz-adv-x="1099" 
d="M0 0l381 557l-348 502h332l186 -277l184 277h322l-348 -496l391 -563h-332l-221 334l-221 -334h-326z" />
    <glyph glyph-name="y" unicode="y" horiz-adv-x="1062" 
d="M1075 1059l-442 -1192q-47 -128 -131.5 -184t-233.5 -56q-70 0 -178 11v239q111 -12 170 -10q55 6 84 43.5t29 89.5q0 34 -13 66l-372 993h311l240 -725h4l231 725h301z" />
    <glyph glyph-name="z" unicode="z" horiz-adv-x="1062" 
d="M45 0v219l551 621h-510v219h893v-219l-551 -621h590v-219h-973z" />
    <glyph glyph-name="braceleft" unicode="{" horiz-adv-x="681" 
d="M682 1497v-229h-111q-110 0 -110 -150v-311q0 -57 -16 -101.5t-38 -69t-52.5 -41t-52.5 -22.5t-44 -8v-6q21 -2 44 -9t52.5 -23.5t52.5 -40.5t38.5 -63.5t15.5 -88.5v-328q0 -29 3.5 -52t14 -46.5t34 -37t58.5 -13.5h111v-230h-260q-36 0 -78.5 18t-82 50.5t-65.5 87.5
t-26 121v399q0 36 -13.5 65.5t-34 48.5t-46 32t-49.5 18.5t-45 5.5v178q27 0 57.5 10t61 30t50 58t19.5 87v385q0 66 26 121t65.5 87.5t82 50t78.5 17.5h260z" />
    <glyph glyph-name="bar" unicode="|" horiz-adv-x="456" 
d="M119 -438v2048h219v-2048h-219z" />
    <glyph glyph-name="braceright" unicode="}" horiz-adv-x="681" 
d="M0 -373v230h111q35 0 58.5 13.5t34 37t14 46.5t3.5 52v328q0 60 22.5 106t57 69.5t65 35t58.5 14.5v6q-23 2 -45 8t-52.5 22.5t-52.5 41t-37.5 69t-15.5 101.5v311q0 150 -110 150h-111v229h260q36 0 78.5 -17.5t82 -50t65.5 -87.5t26 -121v-385q0 -49 19.5 -87t50 -58
t61 -30t57.5 -10v-178q-21 0 -45 -5.5t-49.5 -18.5t-46 -32t-34 -48.5t-13.5 -65.5v-399q0 -66 -26 -121t-65.5 -87.5t-82 -50.5t-78.5 -18h-260z" />
    <glyph glyph-name="asciitilde" unicode="~" horiz-adv-x="1228" 
d="M1010 705l82 -191q-26 -39 -48 -65.5t-53.5 -54.5t-70.5 -42t-84 -14q-90 0 -209 68q-120 71 -236 71q-105 0 -172 -147l-82 190q86 176 256 176q79 0 228 -65q12 -5 54.5 -24t60 -26.5t46 -15.5t47.5 -8q30 0 55 11t50.5 38.5t36.5 43t39 55.5z" />
    <glyph glyph-name="uni00A0" unicode="&#xa0;" horiz-adv-x="569" 
 />
    <glyph glyph-name="exclamdown" unicode="&#xa1;" horiz-adv-x="569" 
d="M133 -375v393l80 631h145l78 -631v-393h-303zM446 1087v-315h-321v315h321z" />
    <glyph glyph-name="cent" unicode="&#xa2;" horiz-adv-x="1138" 
d="M532 -236v207q-218 12 -353.5 165.5t-135.5 375.5q0 240 128.5 397.5t360.5 177.5v175h121v-175q114 0 216 -48.5t170 -142t73 -212.5h-285q-6 73 -55.5 125.5t-118.5 58.5v-678q73 12 125.5 79.5t52.5 146.5h285q-17 -192 -143.5 -309.5t-319.5 -135.5v-207h-121z
M532 190v676q-70 -19 -116 -71t-64 -115.5t-18 -138.5q0 -125 46.5 -221t151.5 -130z" />
    <glyph glyph-name="sterling" unicode="&#xa3;" horiz-adv-x="1138" 
d="M180 -35l-127 191q98 62 165 150t67 190q0 57 -39 137h-203v174h131q-36 45 -64 121.5t-28 161.5q0 173 138.5 290t385.5 117q235 0 366.5 -132.5t131.5 -379.5h-277q-2 28 -3.5 41t-7.5 47t-14 53.5t-25 47.5t-39 43.5t-56.5 27.5t-77.5 12q-91 0 -146 -51t-55 -137
q0 -39 3.5 -64.5t22.5 -77t58 -120.5h273v-174h-215q16 -47 16 -127q0 -89 -44.5 -156.5t-123.5 -130.5l4 -4q76 47 140 47q40 0 161 -22q98 -25 160 -25q49 0 89 16.5t91 71.5l123 -207q-134 -131 -319 -131q-132 0 -224 37q-105 41 -202 41q-137 0 -236 -78z" />
    <glyph glyph-name="currency" unicode="&#xa4;" horiz-adv-x="1138" 
d="M573 1006q-123 0 -191.5 -84.5t-68.5 -206.5q0 -120 68 -203.5t190 -83.5q120 0 185 85.5t65 205.5q0 116 -65.5 201.5t-182.5 85.5zM41 305l117 119q-99 116 -99 291q0 196 99 295l-117 118l117 117l116 -115q51 43 132 69t167 26q81 0 157 -25t124 -67l119 116
l125 -125l-115 -112q44 -49 68 -127t24 -166q0 -186 -94 -299l113 -115l-113 -112l-117 118q-50 -49 -128 -75.5t-165 -26.5q-192 0 -301 100l-114 -119z" />
    <glyph glyph-name="yen" unicode="&#xa5;" horiz-adv-x="1138" 
d="M735 0h-311v283h-322v194h322v94l-29 60h-293v194h195l-315 637h333l271 -637l264 637h332l-318 -637h195v-194h-293l-31 -60v-94h324v-194h-324v-283z" />
    <glyph glyph-name="brokenbar" unicode="&#xa6;" horiz-adv-x="456" 
d="M338 1354v-512h-219v512h219zM119 -182v512h219v-512h-219z" />
    <glyph glyph-name="section" unicode="&#xa7;" horiz-adv-x="1138" 
d="M1012 1102h-254q0 77 -47 126.5t-127 49.5q-60 0 -108 -36.5t-48 -94.5q1 -46 40 -86.5t100 -72.5t134.5 -64.5t147 -71.5t133.5 -84.5t97.5 -111t37.5 -144.5q0 -102 -58 -183t-155 -116q113 -83 113 -242q0 -82 -38.5 -149.5t-102 -109t-139.5 -63.5t-156 -22
q-100 0 -182.5 23.5t-145.5 70.5t-98 124.5t-35 179.5h254q9 -179 200 -179q66 0 109 35.5t43 100.5q2 39 -21.5 73t-63.5 61t-93 53.5t-112 53t-118 55t-112.5 64.5t-95 77.5t-66.5 97.5t-25 120q0 109 57 185.5t163 113.5q-46 50 -67 97t-21 110q0 83 37.5 152t99 112
t137 66.5t154.5 23.5q122 0 218.5 -45t155 -136t58.5 -214zM772 588l-338 190q-4 2 -12 7t-13 7.5t-13.5 5t-16.5 1.5q-43 -4 -74 -47.5t-31 -89.5q0 -66 66 -101l369 -201q33 -14 61 -14q39 0 66.5 38t27.5 75q0 78 -92 129z" />
    <glyph glyph-name="dieresis" unicode="&#xa8;" horiz-adv-x="530" 
d="M-84 1225v239h277v-239h-277zM338 1225v239h276v-239h-276z" />
    <glyph glyph-name="copyright" unicode="&#xa9;" horiz-adv-x="1638" 
d="M1055 604h166q-24 -150 -128.5 -236.5t-244.5 -86.5q-196 0 -318 129.5t-122 324.5q0 201 118 330t318 129q146 0 248 -83t122 -234h-159q-17 71 -74 112t-137 41q-114 0 -177 -80t-63 -211q0 -123 68 -209t176 -86q86 0 141 43t66 117zM242 731q0 -129 45 -241.5
t122.5 -191t184 -124t225.5 -45.5q118 0 224 45.5t184 124t124 191.5t46 241t-46 241t-124 191.5t-184 124t-224 45.5q-119 0 -225.5 -45.5t-184 -124t-122.5 -191t-45 -241.5zM33 731q0 170 64.5 315.5t172.5 243t250.5 152.5t298.5 55t298.5 -55t251 -152.5t173 -243
t64.5 -315.5t-64.5 -315t-173 -243t-251 -153t-298.5 -55t-298.5 55t-250.5 153t-172.5 243t-64.5 315z" />
    <glyph glyph-name="ordfeminine" unicode="&#xaa;" horiz-adv-x="704" 
d="M250 1239h-209q34 223 319 223q308 0 308 -182v-340q0 -108 24 -154h-207q-12 40 -14 64q-77 -82 -221 -82q-103 0 -166.5 50.5t-63.5 154.5q0 54 19 92t56.5 58.5t72.5 30.5t86 17q21 3 50.5 6t47 5t39.5 5t35 7.5t25 12t17 18t5 24.5q0 49 -31 64.5t-92 15.5
q-39 0 -67.5 -23t-32.5 -67zM471 1055v41q-11 -9 -29.5 -16t-34.5 -9.5t-39.5 -6t-33.5 -5.5q-52 -13 -78.5 -30t-26.5 -52q0 -40 28.5 -58t64.5 -18q48 0 80.5 14.5t46 40t18 48t4.5 51.5z" />
    <glyph glyph-name="guillemotleft" unicode="&#xab;" horiz-adv-x="909" 
d="M408 164l-322 256v276l322 252v-246l-185 -145l185 -147v-246zM823 164l-321 256v276l321 252v-246l-184 -145l184 -147v-246z" />
    <glyph glyph-name="logicalnot" unicode="&#xac;" horiz-adv-x="1228" 
d="M1130 831v-628h-219v409h-813v219h1032z" />
    <glyph glyph-name="uni00AD" unicode="&#xad;" horiz-adv-x="833" 
d="M109 434v250h616v-250h-616z" />
    <glyph glyph-name="registered" unicode="&#xae;" horiz-adv-x="1638" 
d="M684 1030v-225h152q84 0 126 23.5t42 95.5q0 106 -177 106h-143zM514 305v858h324q167 0 251.5 -59.5t84.5 -194.5q0 -111 -61.5 -166t-164.5 -63l230 -375h-179l-208 367h-107v-367h-170zM242 733q0 -129 45 -241.5t122.5 -192t184 -125t225.5 -45.5q118 0 224 45.5
t184 124.5t124 192t46 242q0 128 -46 240t-124 190.5t-184 124t-224 45.5q-119 0 -225.5 -45t-184 -124t-122.5 -191t-45 -240zM33 733q0 170 64.5 315t172.5 242t250.5 152t298.5 55t298.5 -55t251 -152t173 -242t64.5 -315t-64.5 -316t-173 -244t-251 -153t-298.5 -55
t-298.5 55t-250.5 153t-172.5 244t-64.5 316z" />
    <glyph glyph-name="macron" unicode="&#xaf;" horiz-adv-x="530" 
d="M-117 1268v153h764v-153h-764z" />
    <glyph glyph-name="degree" unicode="&#xb0;" horiz-adv-x="819" 
d="M240 1159q0 -73 51.5 -126.5t118.5 -53.5t118.5 53.5t51.5 126.5t-51.5 126.5t-118.5 53.5t-118.5 -53.5t-51.5 -126.5zM106 1159q0 127 88 215t216 88t215.5 -88t87.5 -215t-87.5 -215t-215.5 -88t-216 88t-88 215z" />
    <glyph glyph-name="plusminus" unicode="&#xb1;" horiz-adv-x="1228" 
d="M98 0v219h1035v-219h-1035zM725 1036v-268h408v-219h-408v-268h-219v268h-408v219h408v268h219z" />
    <glyph glyph-name="twosuperior" unicode="&#xb2;" horiz-adv-x="802" 
d="M266 1106h-209q-2 164 92.5 260t278.5 96q136 0 228 -72.5t92 -203.5q0 -63 -23 -113.5t-59 -82.5t-84.5 -64.5t-95 -58t-95 -64t-80.5 -80.5h428v-164h-684q0 46 8 86t20.5 71t35.5 61.5t43.5 52t54.5 47t59 42t66 42.5q11 8 49.5 31t56 36.5t43.5 37t37 49.5t11 56
q0 55 -34.5 91t-90.5 36q-78 0 -115.5 -60.5t-32.5 -131.5z" />
    <glyph glyph-name="threesuperior" unicode="&#xb3;" horiz-adv-x="802" 
d="M336 950v144h35.5t35.5 2t38 5t32 10t28.5 17t17 26t7.5 36q0 49 -37.5 78.5t-89.5 29.5q-64 0 -101.5 -42t-35.5 -105h-196q5 144 92 227.5t239 83.5q85 0 157.5 -26.5t120.5 -85.5t48 -140q0 -64 -35 -111.5t-100 -64.5v-4q77 -13 121.5 -66t44.5 -126
q0 -141 -102 -219t-253 -78q-169 0 -265.5 85t-92.5 242h197q5 -71 44 -117t113 -46q63 0 106.5 36.5t43.5 92.5q0 24 -7.5 43t-18 31t-30.5 20.5t-34.5 12.5t-41.5 6.5t-40.5 2.5h-40.5z" />
    <glyph glyph-name="acute" unicode="&#xb4;" horiz-adv-x="530" 
d="M629 1497l-316 -291h-202l196 291h322z" />
    <glyph glyph-name="mu" unicode="&#xb5;" 
d="M1104 1059v-1059h-277v147h-6q-53 -82 -131 -129t-135 -47q-109 0 -154 49v-393h-290v1432h290v-598q0 -134 43 -197t144 -63q119 0 172 71t53 232v555h291z" />
    <glyph glyph-name="paragraph" unicode="&#xb6;" horiz-adv-x="1269" 
d="M453 -340v1071q-213 0 -331 96.5t-118 262.5q0 104 36 178t104 115.5t154 60t198 18.5h600v-1802h-209v1638h-225v-1638h-209z" />
    <glyph glyph-name="periodcentered" unicode="&#xb7;" horiz-adv-x="569" 
d="M113 588q0 72 52 123t122 51q69 0 120.5 -51t51.5 -123q0 -67 -51.5 -119.5t-118.5 -52.5q-72 0 -124 51t-52 121z" />
    <glyph glyph-name="cedilla" unicode="&#xb8;" horiz-adv-x="530" 
d="M25 -399l43 98q88 -37 172 -37q82 0 82 70q0 65 -82 65q-44 0 -82 -14l-43 49l121 168h100l-80 -106l2 -5q38 15 72 15q76 0 132 -37t56 -107q0 -57 -20.5 -98.5t-56 -63.5t-75.5 -32t-87 -10q-90 0 -137.5 9.5t-116.5 35.5z" />
    <glyph glyph-name="onesuperior" unicode="&#xb9;" horiz-adv-x="802" 
d="M592 1444v-885h-209v561h-225v154q106 -5 177.5 36t84.5 134h172z" />
    <glyph glyph-name="ordmasculine" unicode="&#xba;" horiz-adv-x="751" 
d="M244 1114q0 -76 33.5 -134t97.5 -58q65 0 99 58t34 134q0 78 -34 136.5t-99 58.5q-64 0 -97.5 -58.5t-33.5 -136.5zM25 1114q0 161 95 254.5t255 93.5q161 0 256.5 -94t95.5 -254t-95.5 -253t-256.5 -93t-255.5 93t-94.5 253z" />
    <glyph glyph-name="guillemotright" unicode="&#xbb;" horiz-adv-x="909" 
d="M86 948l322 -252v-276l-322 -256v246l184 147l-184 145v246zM502 948l321 -252v-276l-321 -256v246l184 147l-184 145v246z" />
    <glyph glyph-name="onequarter" unicode="&#xbc;" horiz-adv-x="1826" 
d="M1411 346v295h-4l-233 -295h237zM1411 0v182h-393v191l385 487h205v-514h116v-164h-116v-182h-197zM483 1444v-885h-209v561h-225v154q106 -5 177.5 36t84.5 134h172zM311 -45l848 1524h174l-844 -1524h-178z" />
    <glyph glyph-name="onehalf" unicode="&#xbd;" horiz-adv-x="1820" 
d="M1251 547h-209q-2 164 92.5 260t278.5 96q136 0 228 -72.5t92 -203.5q0 -63 -23 -113.5t-59 -82.5t-84.5 -64.5t-95 -58t-95 -64t-80.5 -80.5h428v-164h-684q0 63 16 116.5t38 89.5t65 74.5t76 61.5t92 59q10 7 49 31t56.5 37t43.5 37t37 50t11 56q0 55 -34.5 91
t-90.5 36q-78 0 -115.5 -60.5t-32.5 -131.5zM483 1444v-885h-209v561h-225v154q106 -5 177.5 36t84.5 134h172zM311 -45l848 1524h174l-844 -1524h-178z" />
    <glyph glyph-name="threequarters" unicode="&#xbe;" horiz-adv-x="1820" 
d="M1452 346v295h-4l-234 -295h238zM1452 0v182h-393v191l385 487h205v-514h116v-164h-116v-182h-197zM371 950v144h35.5t35.5 2t38 5t32 10t28.5 17t17 26t7.5 36q0 49 -37.5 78.5t-89.5 29.5q-64 0 -101.5 -42t-35.5 -105h-197q5 144 92.5 227.5t239.5 83.5
q85 0 157.5 -26.5t120.5 -85.5t48 -140q0 -64 -35 -111.5t-100 -64.5v-4q77 -13 121.5 -66t44.5 -126q0 -141 -102 -219t-253 -78q-169 0 -265.5 85t-92.5 242h196q5 -71 44.5 -117t113.5 -46q63 0 106.5 36.5t43.5 92.5q0 24 -7.5 43t-18 31t-30.5 20.5t-34.5 12.5
t-41.5 6.5t-40.5 2.5h-40.5zM489 -45l848 1524h174l-843 -1524h-179z" />
    <glyph glyph-name="questiondown" unicode="&#xbf;" horiz-adv-x="1138" 
d="M743 1087v-315h-321v315h321zM768 104h301q-5 -222 -140 -363.5t-354 -141.5q-110 0 -200 26.5t-146 67.5t-94 94.5t-53.5 105t-15.5 101.5q0 80 18.5 142t49 102t67.5 72t76 59t72 54.5t57.5 67t31.5 89.5v77h277v-92q-6 -72 -27.5 -129.5t-51.5 -94.5t-64.5 -68
t-67.5 -56t-59.5 -51.5t-42.5 -62t-15 -80.5q0 -92 45.5 -138.5t128.5 -46.5q101 0 154 75t53 191z" />
    <glyph glyph-name="Agrave" unicode="&#xc0;" horiz-adv-x="1402" 
d="M700 1102l-190 -537h379l-184 537h-5zM-14 0l555 1462h329l547 -1462h-334l-110 326h-547l-115 -326h-325zM643 1595l-315 291h321l197 -291h-203z" />
    <glyph glyph-name="Aacute" unicode="&#xc1;" horiz-adv-x="1402" 
d="M700 1102l-190 -537h379l-184 537h-5zM-14 0l555 1462h329l547 -1462h-334l-110 326h-547l-115 -326h-325zM1077 1886l-315 -291h-203l197 291h321z" />
    <glyph glyph-name="Acircumflex" unicode="&#xc2;" horiz-adv-x="1402" 
d="M700 1102l-190 -537h379l-184 537h-5zM-14 0l555 1462h329l547 -1462h-334l-110 326h-547l-115 -326h-325zM350 1595l228 291h266l225 -291h-240l-127 166l-131 -166h-221z" />
    <glyph glyph-name="Atilde" unicode="&#xc3;" horiz-adv-x="1402" 
d="M700 1102l-190 -537h379l-184 537h-5zM-14 0l555 1462h329l547 -1462h-334l-110 326h-547l-115 -326h-325zM940 1866h141q-9 -41 -17.5 -68.5t-25.5 -60.5t-40 -53t-60 -35t-86 -17q-41 0 -73.5 6.5t-92.5 28.5q-7 2 -23.5 7.5t-21.5 7.5t-17.5 6t-17.5 5.5t-14.5 3.5
t-15.5 3t-13.5 1.5t-15.5 0.5q-68 0 -92 -86h-125q11 99 75.5 174t163.5 76q60 0 148 -37q8 -3 27 -9.5t29 -10t25 -7.5t27.5 -6t24.5 -2q38 0 58 16t32 56z" />
    <glyph glyph-name="Adieresis" unicode="&#xc4;" horiz-adv-x="1402" 
d="M700 1102l-190 -537h379l-184 537h-5zM-14 0l555 1462h329l547 -1462h-334l-110 326h-547l-115 -326h-325zM358 1614v239h277v-239h-277zM780 1614v239h277v-239h-277z" />
    <glyph glyph-name="Aring" unicode="&#xc5;" horiz-adv-x="1402" 
d="M700 1102l-190 -537h379l-184 537h-5zM-14 0l555 1462h329l547 -1462h-334l-110 326h-547l-115 -326h-325zM455 1774q0 104 73 176.5t177 72.5t177.5 -72.5t73.5 -176.5q0 -105 -73 -176.5t-178 -71.5t-177.5 71.5t-72.5 176.5zM575 1774q0 -61 35.5 -100.5t94.5 -39.5
t95 39.5t36 100.5t-36 100t-95 39t-94.5 -39t-35.5 -100z" />
    <glyph glyph-name="AE" unicode="&#xc6;" horiz-adv-x="2009" 
d="M-23 0l699 1462h1241v-270h-680v-313h639v-250h-639v-359h696v-270h-1007v326h-459l-148 -326h-342zM856 1192l-283 -627h353v627h-70z" />
    <glyph glyph-name="Ccedilla" unicode="&#xc7;" horiz-adv-x="1517" 
d="M514 -399l43 98q88 -37 172 -37q82 0 82 70q0 65 -82 65q-44 0 -82 -14l-43 49l98 137q-112 12 -208 56q-197 87 -306.5 273t-109.5 427q0 218 84.5 392t249.5 277t385 103q161 0 295.5 -60t225 -181t109.5 -285h-311q-17 109 -109 182.5t-210 73.5q-84 0 -152 -28
t-113 -75t-75.5 -112t-44 -136.5t-13.5 -150.5q0 -76 13.5 -145t44 -132.5t75.5 -110t113 -74t152 -27.5q143 0 227.5 87.5t103.5 239.5h312q-25 -274 -199 -436t-442 -162l-54 -71l3 -5q37 15 71 15q77 0 133 -37t56 -107q0 -57 -20.5 -98.5t-56 -63.5t-76 -32t-87.5 -10
q-90 0 -137.5 9.5t-116.5 35.5z" />
    <glyph glyph-name="Egrave" unicode="&#xc8;" horiz-adv-x="1327" 
d="M141 0v1462h1094v-270h-772v-313h708v-250h-708v-359h788v-270h-1110zM649 1595l-315 291h321l197 -291h-203z" />
    <glyph glyph-name="Eacute" unicode="&#xc9;" horiz-adv-x="1327" 
d="M141 0v1462h1094v-270h-772v-313h708v-250h-708v-359h788v-270h-1110zM1090 1886l-316 -291h-203l197 291h322z" />
    <glyph glyph-name="Ecircumflex" unicode="&#xca;" horiz-adv-x="1327" 
d="M141 0v1462h1094v-270h-772v-313h708v-250h-708v-359h788v-270h-1110zM322 1595l227 291h266l225 -291h-239l-127 166l-131 -166h-221z" />
    <glyph glyph-name="Edieresis" unicode="&#xcb;" horiz-adv-x="1327" 
d="M141 0v1462h1094v-270h-772v-313h708v-250h-708v-359h788v-270h-1110zM346 1614v239h277v-239h-277zM768 1614v239h276v-239h-276z" />
    <glyph glyph-name="Igrave" unicode="&#xcc;" horiz-adv-x="604" 
d="M141 0v1462h322v-1462h-322zM260 1595l-315 291h321l197 -291h-203z" />
    <glyph glyph-name="Iacute" unicode="&#xcd;" horiz-adv-x="604" 
d="M141 0v1462h322v-1462h-322zM657 1886l-315 -291h-203l197 291h321z" />
    <glyph glyph-name="Icircumflex" unicode="&#xce;" horiz-adv-x="604" 
d="M141 0v1462h322v-1462h-322zM-57 1595l227 291h266l226 -291h-240l-127 166l-131 -166h-221z" />
    <glyph glyph-name="Idieresis" unicode="&#xcf;" horiz-adv-x="604" 
d="M141 0v1462h322v-1462h-322zM-49 1614v239h276v-239h-276zM373 1614v239h276v-239h-276z" />
    <glyph glyph-name="Eth" unicode="&#xd0;" horiz-adv-x="1517" 
d="M463 1192v-318h328v-239h-328v-365h287q73 0 136 24t115.5 73.5t82.5 137t30 204.5q0 115 -22 201t-70 150.5t-131 98t-199 33.5h-229zM141 0v637h-135v237h135v588h631q144 0 264 -45.5t210 -134t140 -227.5t50 -316q0 -161 -41.5 -294.5t-122.5 -233.5t-209 -155.5
t-291 -55.5h-631z" />
    <glyph glyph-name="Ntilde" unicode="&#xd1;" horiz-adv-x="1517" 
d="M141 0v1462h320l610 -981h4v981h301v-1462h-321l-609 979h-4v-979h-301zM1001 1866h142q-11 -52 -23.5 -85.5t-37 -70t-67 -56t-102.5 -22.5q-41 0 -73 6.5t-92 28.5l-21 7l-19.5 6.5l-16.5 5.5t-16.5 5t-13.5 3.5t-14 3.5t-12.5 2t-13.5 1.5t-13 0.5q-68 0 -92 -86h-125
q7 63 36 118t83 93t121 39q59 0 147 -37q8 -3 27 -9.5t29 -10t25 -7.5t27.5 -6t24.5 -2q38 0 58 16t32 56z" />
    <glyph glyph-name="Ograve" unicode="&#xd2;" horiz-adv-x="1593" 
d="M399 725q0 -76 13.5 -145t44 -132.5t75.5 -110t113 -74t152 -27.5q104 0 183 41.5t124.5 112.5t67.5 155t22 180q0 79 -13.5 150.5t-43.5 136.5t-75 112t-113 75t-152 28t-152 -28t-113 -75t-75.5 -112t-44 -136.5t-13.5 -150.5zM78 725q0 218 84.5 392t249.5 277
t385 103t385 -103t249.5 -277t84.5 -392q0 -158 -49.5 -296.5t-140 -241.5t-227.5 -162.5t-302 -59.5t-302 59.5t-227.5 162.5t-140 241.5t-49.5 296.5zM723 1595l-315 291h321l197 -291h-203z" />
    <glyph glyph-name="Oacute" unicode="&#xd3;" horiz-adv-x="1593" 
d="M399 725q0 -76 13.5 -145t44 -132.5t75.5 -110t113 -74t152 -27.5q104 0 183 41.5t124.5 112.5t67.5 155t22 180q0 79 -13.5 150.5t-43.5 136.5t-75 112t-113 75t-152 28t-152 -28t-113 -75t-75.5 -112t-44 -136.5t-13.5 -150.5zM78 725q0 218 84.5 392t249.5 277
t385 103t385 -103t249.5 -277t84.5 -392q0 -158 -49.5 -296.5t-140 -241.5t-227.5 -162.5t-302 -59.5t-302 59.5t-227.5 162.5t-140 241.5t-49.5 296.5zM1204 1886l-315 -291h-203l197 291h321z" />
    <glyph glyph-name="Ocircumflex" unicode="&#xd4;" horiz-adv-x="1593" 
d="M399 725q0 -76 13.5 -145t44 -132.5t75.5 -110t113 -74t152 -27.5q104 0 183 41.5t124.5 112.5t67.5 155t22 180q0 79 -13.5 150.5t-43.5 136.5t-75 112t-113 75t-152 28t-152 -28t-113 -75t-75.5 -112t-44 -136.5t-13.5 -150.5zM78 725q0 218 84.5 392t249.5 277
t385 103t385 -103t249.5 -277t84.5 -392q0 -158 -49.5 -296.5t-140 -241.5t-227.5 -162.5t-302 -59.5t-302 59.5t-227.5 162.5t-140 241.5t-49.5 296.5zM451 1595l227 291h266l225 -291h-239l-127 166l-131 -166h-221z" />
    <glyph glyph-name="Otilde" unicode="&#xd5;" horiz-adv-x="1593" 
d="M399 725q0 -76 13.5 -145t44 -132.5t75.5 -110t113 -74t152 -27.5q104 0 183 41.5t124.5 112.5t67.5 155t22 180q0 79 -13.5 150.5t-43.5 136.5t-75 112t-113 75t-152 28t-152 -28t-113 -75t-75.5 -112t-44 -136.5t-13.5 -150.5zM78 725q0 218 84.5 392t249.5 277
t385 103t385 -103t249.5 -277t84.5 -392q0 -158 -49.5 -296.5t-140 -241.5t-227.5 -162.5t-302 -59.5t-302 59.5t-227.5 162.5t-140 241.5t-49.5 296.5zM1032 1866h142q-11 -52 -23.5 -85.5t-37 -70t-67 -56t-102.5 -22.5q-41 0 -73.5 6.5t-92.5 28.5q-7 2 -23.5 7.5
t-21.5 7.5t-17.5 6t-17.5 5.5t-14.5 3.5t-15.5 3t-13.5 1.5t-15.5 0.5q-68 0 -92 -86h-125q7 63 36 118t83 93t121 39q59 0 147 -37q8 -3 27 -9.5t29 -10t25 -7.5t27.5 -6t24.5 -2q38 0 58 16t32 56z" />
    <glyph glyph-name="Odieresis" unicode="&#xd6;" horiz-adv-x="1593" 
d="M399 725q0 -76 13.5 -145t44 -132.5t75.5 -110t113 -74t152 -27.5q104 0 183 41.5t124.5 112.5t67.5 155t22 180q0 79 -13.5 150.5t-43.5 136.5t-75 112t-113 75t-152 28t-152 -28t-113 -75t-75.5 -112t-44 -136.5t-13.5 -150.5zM78 725q0 218 84.5 392t249.5 277
t385 103t385 -103t249.5 -277t84.5 -392q0 -158 -49.5 -296.5t-140 -241.5t-227.5 -162.5t-302 -59.5t-302 59.5t-227.5 162.5t-140 241.5t-49.5 296.5zM442 1614v239h277v-239h-277zM864 1614v239h277v-239h-277z" />
    <glyph glyph-name="multiply" unicode="&#xd7;" horiz-adv-x="1228" 
d="M287 35l-156 155l330 328l-326 328l156 155l325 -327l328 327l156 -155l-330 -328l330 -328l-156 -155l-328 330z" />
    <glyph glyph-name="Oslash" unicode="&#xd8;" horiz-adv-x="1593" 
d="M1139 1004l-604 -668q100 -100 262 -100q104 0 183 41.5t124.5 112.5t67.5 155t22 180q0 161 -55 279zM457 449l606 673q-105 105 -266 105q-84 0 -152 -28t-113 -75t-75.5 -112t-44 -136.5t-13.5 -150.5q0 -157 58 -276zM70 20l176 195q-168 204 -168 510
q0 218 84.5 392t249.5 277t385 103q275 0 460 -158l164 183l103 -90l-172 -191q164 -212 164 -516q0 -158 -49.5 -296.5t-140 -241.5t-227.5 -162.5t-302 -59.5q-270 0 -457 156l-170 -189z" />
    <glyph glyph-name="Ugrave" unicode="&#xd9;" horiz-adv-x="1517" 
d="M1382 1462v-909q0 -291 -162.5 -439.5t-461.5 -148.5q-302 0 -462.5 147t-160.5 441v909h322v-909q0 -53 6 -95t25 -85.5t51.5 -72t88 -46.5t130.5 -18q168 0 235.5 74.5t67.5 242.5v909h321zM670 1595l-316 291h322l196 -291h-202z" />
    <glyph glyph-name="Uacute" unicode="&#xda;" horiz-adv-x="1517" 
d="M1382 1462v-909q0 -291 -162.5 -439.5t-461.5 -148.5q-302 0 -462.5 147t-160.5 441v909h322v-909q0 -53 6 -95t25 -85.5t51.5 -72t88 -46.5t130.5 -18q168 0 235.5 74.5t67.5 242.5v909h321zM1163 1886l-315 -291h-203l197 291h321z" />
    <glyph glyph-name="Ucircumflex" unicode="&#xdb;" horiz-adv-x="1517" 
d="M1382 1462v-909q0 -291 -162.5 -439.5t-461.5 -148.5q-302 0 -462.5 147t-160.5 441v909h322v-909q0 -53 6 -95t25 -85.5t51.5 -72t88 -46.5t130.5 -18q168 0 235.5 74.5t67.5 242.5v909h321zM403 1595l228 291h266l225 -291h-239l-127 166l-131 -166h-222z" />
    <glyph glyph-name="Udieresis" unicode="&#xdc;" horiz-adv-x="1517" 
d="M1382 1462v-909q0 -291 -162.5 -439.5t-461.5 -148.5q-302 0 -462.5 147t-160.5 441v909h322v-909q0 -53 6 -95t25 -85.5t51.5 -72t88 -46.5t130.5 -18q168 0 235.5 74.5t67.5 242.5v909h321zM410 1614v239h276v-239h-276zM831 1614v239h277v-239h-277z" />
    <glyph glyph-name="Yacute" unicode="&#xdd;" horiz-adv-x="1366" 
d="M520 0v569l-538 893h362l342 -577l340 577h358l-542 -901v-561h-322zM1094 1886l-316 -291h-203l197 291h322z" />
    <glyph glyph-name="Thorn" unicode="&#xde;" horiz-adv-x="1366" 
d="M463 1014v-439h250q48 0 86 5t76 19t63.5 38t41 64t15.5 94t-15.5 94t-41 63.5t-63.5 37.5t-76 19t-86 5h-250zM141 0v1462h322v-198h338q107 0 193.5 -26t143.5 -70.5t96 -105t56 -127t17 -140.5t-17 -140.5t-56 -127t-96 -105t-143.5 -70.5t-193.5 -26h-338v-326h-322z
" />
    <glyph glyph-name="germandbls" unicode="&#xdf;" horiz-adv-x="1251" 
d="M115 0v1006q0 53 5 99t19 97t36 92.5t59.5 80t86.5 65t119.5 42t155.5 15.5q75 0 143 -14.5t127 -46t102 -77t68 -111t25 -144.5q0 -98 -53 -178.5t-138 -106.5v-4q129 -27 198 -128t69 -238q0 -127 -56 -236t-159.5 -175.5t-229.5 -66.5q-79 0 -168 13v237
q34 -10 84 -10q103 0 170.5 72t67.5 176q0 115 -62.5 182.5t-187.5 67.5q-22 0 -72 -4v192q32 -4 45 -4q90 0 152.5 46.5t62.5 135.5q0 182 -196 182q-87 0 -134.5 -53.5t-47.5 -146.5v-1057h-291z" />
    <glyph glyph-name="agrave" unicode="&#xe0;" horiz-adv-x="1175" 
d="M389 733h-291q5 78 35.5 140t78 101.5t111.5 65.5t131 36.5t142 10.5q465 0 465 -301v-550q0 -177 37 -236h-295q-19 62 -21 102q-126 -131 -356 -131q-160 0 -260 81t-100 237q1 98 41 164t103 96.5t138.5 47.5t151 24t137 17t98.5 37t35 75q0 84 -49 113.5t-139 29.5
q-179 0 -193 -160zM770 410v108q-17 -15 -47.5 -25.5t-56.5 -15t-71 -10.5t-67 -10q-79 -14 -125.5 -48.5t-46.5 -107.5q0 -135 179 -135q235 0 235 244zM578 1206l-316 291h322l196 -291h-202z" />
    <glyph glyph-name="aacute" unicode="&#xe1;" horiz-adv-x="1175" 
d="M389 733h-291q5 78 35.5 140t78 101.5t111.5 65.5t131 36.5t142 10.5q465 0 465 -301v-550q0 -177 37 -236h-295q-19 62 -21 102q-126 -131 -356 -131q-160 0 -260 81t-100 237q1 98 41 164t103 96.5t138.5 47.5t151 24t137 17t98.5 37t35 75q0 84 -49 113.5t-139 29.5
q-179 0 -193 -160zM770 410v108q-17 -15 -47.5 -25.5t-56.5 -15t-71 -10.5t-67 -10q-79 -14 -125.5 -48.5t-46.5 -107.5q0 -135 179 -135q235 0 235 244zM985 1497l-315 -291h-203l197 291h321z" />
    <glyph glyph-name="acircumflex" unicode="&#xe2;" horiz-adv-x="1175" 
d="M389 733h-291q5 78 35.5 140t78 101.5t111.5 65.5t131 36.5t142 10.5q465 0 465 -301v-550q0 -177 37 -236h-295q-19 62 -21 102q-126 -131 -356 -131q-160 0 -260 81t-100 237q1 98 41 164t103 96.5t138.5 47.5t151 24t137 17t98.5 37t35 75q0 84 -49 113.5t-139 29.5
q-179 0 -193 -160zM770 410v108q-17 -15 -47.5 -25.5t-56.5 -15t-71 -10.5t-67 -10q-79 -14 -125.5 -48.5t-46.5 -107.5q0 -135 179 -135q235 0 235 244zM240 1206l227 291h266l225 -291h-239l-127 166l-131 -166h-221z" />
    <glyph glyph-name="atilde" unicode="&#xe3;" horiz-adv-x="1175" 
d="M389 733h-291q5 78 35.5 140t78 101.5t111.5 65.5t131 36.5t142 10.5q465 0 465 -301v-550q0 -177 37 -236h-295q-19 62 -21 102q-126 -131 -356 -131q-160 0 -260 81t-100 237q1 98 41 164t103 96.5t138.5 47.5t151 24t137 17t98.5 37t35 75q0 84 -49 113.5t-139 29.5
q-179 0 -193 -160zM770 410v108q-17 -15 -47.5 -25.5t-56.5 -15t-71 -10.5t-67 -10q-79 -14 -125.5 -48.5t-46.5 -107.5q0 -135 179 -135q235 0 235 244zM831 1477h142q-11 -52 -23.5 -85.5t-37 -70t-67 -56t-102.5 -22.5q-41 0 -73 6.5t-92 28.5l-21 7l-19.5 6.5l-16.5 5.5
t-16.5 5t-13.5 3.5t-14 3.5t-12.5 2t-13.5 1.5t-13 0.5q-68 0 -92 -86h-125q7 63 36 118t83 93t121 39q59 0 147 -37q8 -3 27 -9.5t29 -10t25 -7.5t27.5 -6t24.5 -2q38 0 58 16t32 56z" />
    <glyph glyph-name="adieresis" unicode="&#xe4;" horiz-adv-x="1175" 
d="M389 733h-291q5 78 35.5 140t78 101.5t111.5 65.5t131 36.5t142 10.5q465 0 465 -301v-550q0 -177 37 -236h-295q-19 62 -21 102q-126 -131 -356 -131q-160 0 -260 81t-100 237q1 98 41 164t103 96.5t138.5 47.5t151 24t137 17t98.5 37t35 75q0 84 -49 113.5t-139 29.5
q-179 0 -193 -160zM770 410v108q-17 -15 -47.5 -25.5t-56.5 -15t-71 -10.5t-67 -10q-79 -14 -125.5 -48.5t-46.5 -107.5q0 -135 179 -135q235 0 235 244zM250 1225v239h276v-239h-276zM672 1225v239h276v-239h-276z" />
    <glyph glyph-name="aring" unicode="&#xe5;" horiz-adv-x="1175" 
d="M389 733h-291q5 78 35.5 140t78 101.5t111.5 65.5t131 36.5t142 10.5q465 0 465 -301v-550q0 -177 37 -236h-295q-19 62 -21 102q-126 -131 -356 -131q-160 0 -260 81t-100 237q1 98 41 164t103 96.5t138.5 47.5t151 24t137 17t98.5 37t35 75q0 84 -49 113.5t-139 29.5
q-179 0 -193 -160zM770 410v108q-17 -15 -47.5 -25.5t-56.5 -15t-71 -10.5t-67 -10q-79 -14 -125.5 -48.5t-46.5 -107.5q0 -135 179 -135q235 0 235 244zM346 1401q0 104 73 177t177 73t178 -73t74 -177q0 -105 -73.5 -176.5t-178.5 -71.5t-177.5 71.5t-72.5 176.5z
M467 1401q0 -61 35 -100t94 -39t95 39t36 100t-36 100t-95 39t-94 -39t-35 -100z" />
    <glyph glyph-name="ae" unicode="&#xe6;" horiz-adv-x="1857" 
d="M1042 643h465q0 104 -61 177t-166 73q-106 0 -172 -74t-66 -176zM1798 459h-756q-3 -71 25.5 -137.5t89 -111t137.5 -44.5q182 0 211 166h283q-45 -167 -179 -264t-309 -97q-123 0 -227 44.5t-168 136.5q-69 -91 -186 -136t-246 -45q-79 0 -147 17t-125 52t-90 98.5
t-33 148.5q0 70 21 124t52.5 86.5t81.5 56.5t94.5 35.5t104.5 20.5q213 34 217 34q100 20 125 59q14 23 14 55q0 135 -188 135q-195 0 -203 -164h-291q4 97 47 168.5t115 111.5t156 59t182 19q106 0 201.5 -34t148.5 -109q63 74 146.5 108.5t208.5 34.5q103 0 185.5 -34
t138 -92.5t93 -139t54 -171t16.5 -191.5zM788 385v131q-29 -23 -85 -36t-110.5 -20t-106.5 -20t-84.5 -47t-32.5 -90q0 -73 51 -105t129 -32q42 0 82.5 12.5t76.5 38t58 69t22 99.5z" />
    <glyph glyph-name="ccedilla" unicode="&#xe7;" horiz-adv-x="1175" 
d="M352 -399l43 98q88 -37 172 -37q82 0 82 70q0 65 -82 65q-44 0 -82 -14l-43 49l103 143q-85 9 -152 35q-147 60 -231 193.5t-84 310.5q0 254 144 413.5t396 159.5q96 0 181.5 -25t155 -73.5t112.5 -126.5t49 -176h-285q-27 182 -215 182q-54 0 -97 -21t-70.5 -55
t-46 -79.5t-26 -92.5t-7.5 -96q0 -62 12.5 -118t39 -106t75.5 -80t114 -30q100 0 159 57.5t73 158.5h280q-27 -208 -164 -324q-126 -102 -317 -111l-57 -77l2 -5q37 15 71 15q77 0 133 -37t56 -107q0 -57 -20.5 -98.5t-56 -63.5t-76 -32t-87.5 -10q-90 0 -137.5 9.5
t-116.5 35.5z" />
    <glyph glyph-name="egrave" unicode="&#xe8;" horiz-adv-x="1175" 
d="M350 643h473q-21 114 -74.5 169.5t-156.5 55.5q-66 0 -115.5 -23t-74.5 -60t-37 -71.5t-15 -70.5zM1114 459h-764q6 -138 71 -203.5t189 -65.5q84 0 150 42.5t80 95.5h256q-116 -357 -496 -357q-248 0 -394.5 154t-146.5 403q0 158 67.5 285t191.5 200.5t282 73.5
q105 0 193.5 -34t150 -93.5t103 -138.5t58 -171.5t9.5 -190.5zM528 1206l-315 291h322l196 -291h-203z" />
    <glyph glyph-name="eacute" unicode="&#xe9;" horiz-adv-x="1175" 
d="M350 643h473q-21 114 -74.5 169.5t-156.5 55.5q-66 0 -115.5 -23t-74.5 -60t-37 -71.5t-15 -70.5zM1114 459h-764q6 -138 71 -203.5t189 -65.5q84 0 150 42.5t80 95.5h256q-116 -357 -496 -357q-248 0 -394.5 154t-146.5 403q0 158 67.5 285t191.5 200.5t282 73.5
q105 0 193.5 -34t150 -93.5t103 -138.5t58 -171.5t9.5 -190.5zM1008 1497l-316 -291h-203l197 291h322z" />
    <glyph glyph-name="ecircumflex" unicode="&#xea;" horiz-adv-x="1175" 
d="M350 643h473q-21 114 -74.5 169.5t-156.5 55.5q-66 0 -115.5 -23t-74.5 -60t-37 -71.5t-15 -70.5zM1114 459h-764q6 -138 71 -203.5t189 -65.5q84 0 150 42.5t80 95.5h256q-116 -357 -496 -357q-248 0 -394.5 154t-146.5 403q0 158 67.5 285t191.5 200.5t282 73.5
q105 0 193.5 -34t150 -93.5t103 -138.5t58 -171.5t9.5 -190.5zM242 1206l227 291h266l226 -291h-240l-127 166l-131 -166h-221z" />
    <glyph glyph-name="edieresis" unicode="&#xeb;" horiz-adv-x="1175" 
d="M350 643h473q-21 114 -74.5 169.5t-156.5 55.5q-66 0 -115.5 -23t-74.5 -60t-37 -71.5t-15 -70.5zM1114 459h-764q6 -138 71 -203.5t189 -65.5q84 0 150 42.5t80 95.5h256q-116 -357 -496 -357q-248 0 -394.5 154t-146.5 403q0 158 67.5 285t191.5 200.5t282 73.5
q105 0 193.5 -34t150 -93.5t103 -138.5t58 -171.5t9.5 -190.5zM250 1225v239h276v-239h-276zM672 1225v239h276v-239h-276z" />
    <glyph glyph-name="igrave" unicode="&#xec;" horiz-adv-x="528" 
d="M119 0v1059h291v-1059h-291zM207 1206l-316 291h322l197 -291h-203z" />
    <glyph glyph-name="iacute" unicode="&#xed;" horiz-adv-x="528" 
d="M119 0v1059h291v-1059h-291zM637 1497l-315 -291h-203l196 291h322z" />
    <glyph glyph-name="icircumflex" unicode="&#xee;" horiz-adv-x="528" 
d="M119 0v1059h291v-1059h-291zM-90 1206l227 291h266l226 -291h-240l-127 166l-131 -166h-221z" />
    <glyph glyph-name="idieresis" unicode="&#xef;" horiz-adv-x="528" 
d="M119 0v1059h291v-1059h-291zM-84 1225v239h277v-239h-277zM338 1225v239h276v-239h-276z" />
    <glyph glyph-name="eth" unicode="&#xf0;" horiz-adv-x="1251" 
d="M272 1214l220 111q-72 52 -173 102l189 142q113 -62 203 -135l252 127l106 -121l-233 -117q171 -165 256.5 -349.5t81.5 -414.5q0 -168 -67 -301t-192.5 -210t-289.5 -77q-247 0 -397 149.5t-150 385.5q0 99 28.5 190.5t83.5 169t148 124t211 46.5q157 0 276 -82h4
q-54 126 -208 260l-230 -114zM625 190q58 0 103 19t74 50.5t47.5 76t26 91.5t7.5 101q0 60 -14.5 114t-44.5 100t-81.5 73t-119.5 27t-118.5 -27.5t-79.5 -74t-42.5 -100t-13.5 -112.5q0 -68 13 -125.5t41 -107t79.5 -77.5t122.5 -28z" />
    <glyph glyph-name="ntilde" unicode="&#xf1;" 
d="M111 0v1059h276v-148h6q53 87 140 131.5t184 44.5q113 0 190.5 -30.5t119.5 -90.5t59.5 -135.5t17.5 -179.5v-651h-291v598q0 134 -43 197t-143 63q-119 0 -172.5 -71t-53.5 -232v-555h-290zM844 1477h141q-9 -41 -17.5 -68.5t-25.5 -60.5t-40 -53t-60 -35t-86 -17
q-41 0 -73.5 6.5t-92.5 28.5q-7 2 -23.5 7.5t-21.5 7.5t-17.5 6t-17.5 5.5t-14.5 3.5t-15.5 3t-13.5 1.5t-15.5 0.5q-69 0 -93 -86h-125q7 63 36 118t83 93t121 39q60 0 148 -37q8 -3 27 -9.5t29 -10t25 -7.5t27.5 -6t24.5 -2q38 0 58 16t32 56z" />
    <glyph glyph-name="ograve" unicode="&#xf2;" horiz-adv-x="1251" 
d="M369 528q0 -68 13 -125.5t41 -107t79.5 -77.5t122.5 -28q58 0 103 19t74 50.5t47.5 76t26 91.5t7.5 101q0 68 -13 125.5t-41 107.5t-80 78.5t-124 28.5q-71 0 -122.5 -28.5t-79.5 -78.5t-41 -107.5t-13 -125.5zM78 528q0 254 149 406.5t398 152.5q250 0 399.5 -152.5
t149.5 -406.5q0 -253 -149.5 -405t-399.5 -152q-249 0 -398 152.5t-149 404.5zM530 1206l-315 291h322l196 -291h-203z" />
    <glyph glyph-name="oacute" unicode="&#xf3;" horiz-adv-x="1251" 
d="M369 528q0 -68 13 -125.5t41 -107t79.5 -77.5t122.5 -28q58 0 103 19t74 50.5t47.5 76t26 91.5t7.5 101q0 68 -13 125.5t-41 107.5t-80 78.5t-124 28.5q-71 0 -122.5 -28.5t-79.5 -78.5t-41 -107.5t-13 -125.5zM78 528q0 254 149 406.5t398 152.5q250 0 399.5 -152.5
t149.5 -406.5q0 -253 -149.5 -405t-399.5 -152q-249 0 -398 152.5t-149 404.5zM1032 1497l-315 -291h-203l197 291h321z" />
    <glyph glyph-name="ocircumflex" unicode="&#xf4;" horiz-adv-x="1251" 
d="M369 528q0 -68 13 -125.5t41 -107t79.5 -77.5t122.5 -28q58 0 103 19t74 50.5t47.5 76t26 91.5t7.5 101q0 68 -13 125.5t-41 107.5t-80 78.5t-124 28.5q-71 0 -122.5 -28.5t-79.5 -78.5t-41 -107.5t-13 -125.5zM78 528q0 254 149 406.5t398 152.5q250 0 399.5 -152.5
t149.5 -406.5q0 -253 -149.5 -405t-399.5 -152q-249 0 -398 152.5t-149 404.5zM270 1206l228 291h266l225 -291h-239l-127 166l-131 -166h-222z" />
    <glyph glyph-name="otilde" unicode="&#xf5;" horiz-adv-x="1251" 
d="M369 528q0 -68 13 -125.5t41 -107t79.5 -77.5t122.5 -28q58 0 103 19t74 50.5t47.5 76t26 91.5t7.5 101q0 68 -13 125.5t-41 107.5t-80 78.5t-124 28.5q-71 0 -122.5 -28.5t-79.5 -78.5t-41 -107.5t-13 -125.5zM78 528q0 254 149 406.5t398 152.5q250 0 399.5 -152.5
t149.5 -406.5q0 -253 -149.5 -405t-399.5 -152q-249 0 -398 152.5t-149 404.5zM862 1477h142q-11 -52 -23.5 -85.5t-37 -70t-67 -56t-102.5 -22.5q-41 0 -73.5 6.5t-92.5 28.5q-7 2 -23.5 7.5t-21.5 7.5t-17.5 6t-17.5 5.5t-14.5 3.5t-15.5 3t-13.5 1.5t-15.5 0.5
q-68 0 -92 -86h-125q7 63 36 118t83 93t121 39q59 0 147 -37q8 -3 27 -9.5t29 -10t25 -7.5t27.5 -6t24.5 -2q38 0 58 16t32 56z" />
    <glyph glyph-name="odieresis" unicode="&#xf6;" horiz-adv-x="1251" 
d="M369 528q0 -68 13 -125.5t41 -107t79.5 -77.5t122.5 -28q58 0 103 19t74 50.5t47.5 76t26 91.5t7.5 101q0 68 -13 125.5t-41 107.5t-80 78.5t-124 28.5q-71 0 -122.5 -28.5t-79.5 -78.5t-41 -107.5t-13 -125.5zM78 528q0 254 149 406.5t398 152.5q250 0 399.5 -152.5
t149.5 -406.5q0 -253 -149.5 -405t-399.5 -152q-249 0 -398 152.5t-149 404.5zM279 1225v239h276v-239h-276zM700 1225v239h277v-239h-277z" />
    <glyph glyph-name="divide" unicode="&#xf7;" horiz-adv-x="1228" 
d="M442 92q0 71 52 121.5t122 50.5t121 -50.5t51 -121.5q0 -66 -51.5 -120t-118.5 -54q-72 0 -124 52t-52 122zM442 942q0 72 52 123t122 51t121 -51t51 -123q0 -67 -51.5 -119.5t-118.5 -52.5q-72 0 -124 51t-52 121zM98 408v219h1035v-219h-1035z" />
    <glyph glyph-name="oslash" unicode="&#xf8;" horiz-adv-x="1251" 
d="M90 2l123 139q-135 147 -135 387q0 254 149 406.5t398 152.5q196 0 333 -98l109 125l76 -65l-111 -125q142 -151 142 -396q0 -253 -149.5 -405t-399.5 -152q-199 0 -338 103l-121 -137zM850 715l-399 -455q63 -70 174 -70q58 0 103 19t74 50.5t47.5 76t26 91.5t7.5 101
q0 108 -33 187zM399 352l396 451q-62 65 -170 65q-71 0 -122.5 -28.5t-79.5 -78.5t-41 -107.5t-13 -125.5q0 -109 30 -176z" />
    <glyph glyph-name="ugrave" unicode="&#xf9;" 
d="M1104 1059v-1059h-277v147h-6q-53 -87 -139.5 -131.5t-183.5 -44.5q-113 0 -190.5 30.5t-119.5 91t-59.5 136t-17.5 179.5v651h290v-598q0 -134 43 -197t144 -63q119 0 172 71t53 232v555h291zM514 1206l-315 291h321l197 -291h-203z" />
    <glyph glyph-name="uacute" unicode="&#xfa;" 
d="M1104 1059v-1059h-277v147h-6q-53 -87 -139.5 -131.5t-183.5 -44.5q-113 0 -190.5 30.5t-119.5 91t-59.5 136t-17.5 179.5v651h290v-598q0 -134 43 -197t144 -63q119 0 172 71t53 232v555h291zM1014 1497l-316 -291h-202l196 291h322z" />
    <glyph glyph-name="ucircumflex" unicode="&#xfb;" 
d="M1104 1059v-1059h-277v147h-6q-53 -87 -139.5 -131.5t-183.5 -44.5q-113 0 -190.5 30.5t-119.5 91t-59.5 136t-17.5 179.5v651h290v-598q0 -134 43 -197t144 -63q119 0 172 71t53 232v555h291zM252 1206l227 291h266l226 -291h-240l-127 166l-131 -166h-221z" />
    <glyph glyph-name="udieresis" unicode="&#xfc;" 
d="M1104 1059v-1059h-277v147h-6q-53 -87 -139.5 -131.5t-183.5 -44.5q-113 0 -190.5 30.5t-119.5 91t-59.5 136t-17.5 179.5v651h290v-598q0 -134 43 -197t144 -63q119 0 172 71t53 232v555h291zM262 1225v239h277v-239h-277zM684 1225v239h277v-239h-277z" />
    <glyph glyph-name="yacute" unicode="&#xfd;" horiz-adv-x="1062" 
d="M1075 1059l-442 -1192q-47 -128 -131.5 -184t-233.5 -56q-70 0 -178 11v239q111 -12 170 -10q55 6 84 43.5t29 89.5q0 34 -13 66l-372 993h311l240 -725h4l231 725h301zM950 1497l-315 -291h-203l197 291h321z" />
    <glyph glyph-name="thorn" unicode="&#xfe;" horiz-adv-x="1251" 
d="M897 526q0 67 -14 126t-43 108.5t-79.5 78.5t-117.5 29q-55 0 -99 -19.5t-72 -51.5t-46.5 -76.5t-26.5 -92.5t-8 -102q0 -68 13.5 -126t42.5 -106t79.5 -76t118.5 -28q55 0 99 18.5t72 50t46.5 75t26.5 91t8 101.5zM111 -373v1835h290v-538h5q52 83 130.5 123t170.5 40
q97 0 177 -30.5t136 -83t94 -125t56 -155.5t18 -175q0 -108 -29.5 -205t-85.5 -174t-146.5 -122.5t-203.5 -45.5q-98 0 -180.5 41.5t-136.5 118.5h-5v-504h-290z" />
    <glyph glyph-name="ydieresis" unicode="&#xff;" horiz-adv-x="1062" 
d="M1075 1059l-442 -1192q-47 -128 -131.5 -184t-233.5 -56q-70 0 -178 11v239q111 -12 170 -10q55 6 84 43.5t29 89.5q0 34 -13 66l-372 993h311l240 -725h4l231 725h301zM193 1225v239h276v-239h-276zM614 1225v239h277v-239h-277z" />
    <glyph glyph-name="Amacron" unicode="&#x100;" horiz-adv-x="1402" 
d="M700 1102l-190 -537h379l-184 537h-5zM-14 0l555 1462h329l547 -1462h-334l-110 326h-547l-115 -326h-325zM326 1657v153h764v-153h-764z" />
    <glyph glyph-name="amacron" unicode="&#x101;" horiz-adv-x="1175" 
d="M389 733h-291q5 78 35.5 140t78 101.5t111.5 65.5t131 36.5t142 10.5q465 0 465 -301v-550q0 -177 37 -236h-295q-19 62 -21 102q-126 -131 -356 -131q-160 0 -260 81t-100 237q1 98 41 164t103 96.5t138.5 47.5t151 24t137 17t98.5 37t35 75q0 84 -49 113.5t-139 29.5
q-179 0 -193 -160zM770 410v108q-17 -15 -47.5 -25.5t-56.5 -15t-71 -10.5t-67 -10q-79 -14 -125.5 -48.5t-46.5 -107.5q0 -135 179 -135q235 0 235 244zM219 1268v153h764v-153h-764z" />
    <glyph glyph-name="Abreve" unicode="&#x102;" horiz-adv-x="1402" 
d="M700 1102l-190 -537h379l-184 537h-5zM-14 0l555 1462h329l547 -1462h-334l-110 326h-547l-115 -326h-325zM362 1890h134q6 -40 26.5 -69.5t50 -45t61 -23t64.5 -7.5q191 0 226 145h129q-38 -299 -365 -299q-148 0 -231 76t-95 223z" />
    <glyph glyph-name="abreve" unicode="&#x103;" horiz-adv-x="1175" 
d="M389 733h-291q5 78 35.5 140t78 101.5t111.5 65.5t131 36.5t142 10.5q465 0 465 -301v-550q0 -177 37 -236h-295q-19 62 -21 102q-126 -131 -356 -131q-160 0 -260 81t-100 237q1 98 41 164t103 96.5t138.5 47.5t151 24t137 17t98.5 37t35 75q0 84 -49 113.5t-139 29.5
q-179 0 -193 -160zM770 410v108q-17 -15 -47.5 -25.5t-56.5 -15t-71 -10.5t-67 -10q-79 -14 -125.5 -48.5t-46.5 -107.5q0 -135 179 -135q235 0 235 244zM258 1501h133q6 -40 26.5 -69.5t50.5 -45t61.5 -23t64.5 -7.5q95 0 151 34.5t74 110.5h129q-38 -299 -364 -299
q-148 0 -231 76t-95 223z" />
    <glyph glyph-name="Aogonek" unicode="&#x104;" horiz-adv-x="1402" 
d="M1243 -260l98 -45q-59 -74 -124 -106.5t-148 -32.5q-78 0 -129 26q-38 19 -64 59t-26 83q0 33 6.5 54.5t26.5 53.5q50 79 200 168l-110 326h-547l-115 -326h-325l555 1462h329l547 -1462h-200q-94 -84 -132 -139.5t-38 -100.5q0 -39 23 -60.5t56 -21.5t57.5 13t59.5 49z
M700 1102l-190 -537h379l-184 537h-5z" />
    <glyph glyph-name="aogonek" unicode="&#x105;" horiz-adv-x="1175" 
d="M952 -260l92 -45q-54 -74 -115 -106.5t-138 -32.5q-72 0 -121 26q-34 20 -59 60t-25 82q0 33 6 54.5t24 53.5q51 80 187 168q-19 62 -21 102q-126 -131 -356 -131q-160 0 -260 81t-100 237q1 98 41 164t103 96.5t138.5 47.5t151 24t137 17t98.5 37t35 75q0 84 -49 113.5
t-139 29.5q-179 0 -193 -160h-291q5 78 35.5 140t78 101.5t111.5 65.5t131 36.5t142 10.5q465 0 465 -301v-550q0 -177 37 -236h-170q-88 -84 -123 -139.5t-35 -100.5q0 -39 21.5 -60.5t52.5 -21.5t53.5 13t54.5 49zM770 410v108q-17 -15 -47.5 -25.5t-56.5 -15t-71 -10.5
t-67 -10q-79 -14 -125.5 -48.5t-46.5 -107.5q0 -135 179 -135q235 0 235 244z" />
    <glyph glyph-name="Cacute" unicode="&#x106;" horiz-adv-x="1517" 
d="M1427 971h-311q-17 109 -109 182.5t-210 73.5q-84 0 -152 -28t-113 -75t-75.5 -112t-44 -136.5t-13.5 -150.5q0 -76 13.5 -145t44 -132.5t75.5 -110t113 -74t152 -27.5q143 0 227.5 87.5t103.5 239.5h312q-25 -275 -199 -436.5t-444 -161.5q-165 0 -302 59.5
t-227.5 162.5t-140 241.5t-49.5 296.5q0 218 84.5 392t249.5 277t385 103q161 0 295.5 -60t225 -181t109.5 -285zM1200 1886l-315 -291h-203l197 291h321z" />
    <glyph glyph-name="cacute" unicode="&#x107;" horiz-adv-x="1175" 
d="M1116 686h-285q-27 182 -215 182q-54 0 -97 -21t-70.5 -55t-46 -79.5t-26 -92.5t-7.5 -96q0 -62 12.5 -118t39 -106t75.5 -80t114 -30q100 0 159 57.5t73 158.5h280q-29 -209 -163.5 -322t-346.5 -113q-238 0 -386 152t-148 391q0 254 144 413.5t396 159.5
q96 0 181.5 -25t155 -73.5t112.5 -126.5t49 -176zM1032 1497l-315 -291h-203l197 291h321z" />
    <glyph glyph-name="Ccircumflex" unicode="&#x108;" horiz-adv-x="1517" 
d="M1427 971h-311q-17 109 -109 182.5t-210 73.5q-84 0 -152 -28t-113 -75t-75.5 -112t-44 -136.5t-13.5 -150.5q0 -76 13.5 -145t44 -132.5t75.5 -110t113 -74t152 -27.5q143 0 227.5 87.5t103.5 239.5h312q-25 -275 -199 -436.5t-444 -161.5q-165 0 -302 59.5
t-227.5 162.5t-140 241.5t-49.5 296.5q0 218 84.5 392t249.5 277t385 103q161 0 295.5 -60t225 -181t109.5 -285zM438 1595l228 291h266l225 -291h-239l-127 166l-132 -166h-221z" />
    <glyph glyph-name="ccircumflex" unicode="&#x109;" horiz-adv-x="1175" 
d="M1116 686h-285q-27 182 -215 182q-54 0 -97 -21t-70.5 -55t-46 -79.5t-26 -92.5t-7.5 -96q0 -62 12.5 -118t39 -106t75.5 -80t114 -30q100 0 159 57.5t73 158.5h280q-29 -209 -163.5 -322t-346.5 -113q-238 0 -386 152t-148 391q0 254 144 413.5t396 159.5
q96 0 181.5 -25t155 -73.5t112.5 -126.5t49 -176zM270 1206l228 291h266l225 -291h-239l-127 166l-131 -166h-222z" />
    <glyph glyph-name="Cdotaccent" unicode="&#x10a;" horiz-adv-x="1517" 
d="M1427 971h-311q-17 109 -109 182.5t-210 73.5q-84 0 -152 -28t-113 -75t-75.5 -112t-44 -136.5t-13.5 -150.5q0 -76 13.5 -145t44 -132.5t75.5 -110t113 -74t152 -27.5q143 0 227.5 87.5t103.5 239.5h312q-25 -275 -199 -436.5t-444 -161.5q-165 0 -302 59.5
t-227.5 162.5t-140 241.5t-49.5 296.5q0 218 84.5 392t249.5 277t385 103q161 0 295.5 -60t225 -181t109.5 -285zM645 1614v239h277v-239h-277z" />
    <glyph glyph-name="cdotaccent" unicode="&#x10b;" horiz-adv-x="1175" 
d="M1116 686h-285q-27 182 -215 182q-54 0 -97 -21t-70.5 -55t-46 -79.5t-26 -92.5t-7.5 -96q0 -62 12.5 -118t39 -106t75.5 -80t114 -30q100 0 159 57.5t73 158.5h280q-29 -209 -163.5 -322t-346.5 -113q-238 0 -386 152t-148 391q0 254 144 413.5t396 159.5
q96 0 181.5 -25t155 -73.5t112.5 -126.5t49 -176zM485 1225v239h277v-239h-277z" />
    <glyph glyph-name="Ccaron" unicode="&#x10c;" horiz-adv-x="1517" 
d="M1427 971h-311q-17 109 -109 182.5t-210 73.5q-84 0 -152 -28t-113 -75t-75.5 -112t-44 -136.5t-13.5 -150.5q0 -76 13.5 -145t44 -132.5t75.5 -110t113 -74t152 -27.5q143 0 227.5 87.5t103.5 239.5h312q-25 -275 -199 -436.5t-444 -161.5q-165 0 -302 59.5
t-227.5 162.5t-140 241.5t-49.5 296.5q0 218 84.5 392t249.5 277t385 103q161 0 295.5 -60t225 -181t109.5 -285zM1143 1886l-225 -291h-267l-227 291h229l131 -166l134 166h225z" />
    <glyph glyph-name="ccaron" unicode="&#x10d;" horiz-adv-x="1175" 
d="M1116 686h-285q-27 182 -215 182q-54 0 -97 -21t-70.5 -55t-46 -79.5t-26 -92.5t-7.5 -96q0 -62 12.5 -118t39 -106t75.5 -80t114 -30q100 0 159 57.5t73 158.5h280q-29 -209 -163.5 -322t-346.5 -113q-238 0 -386 152t-148 391q0 254 144 413.5t396 159.5
q96 0 181.5 -25t155 -73.5t112.5 -126.5t49 -176zM987 1497l-225 -291h-266l-228 291h230l131 -166l133 166h225z" />
    <glyph glyph-name="Dcaron" unicode="&#x10e;" horiz-adv-x="1517" 
d="M463 1192v-922h287q73 0 136 24t115.5 73.5t82.5 137t30 204.5q0 115 -22 201t-70 150.5t-131 98t-199 33.5h-229zM141 0v1462h631q144 0 264 -45.5t210 -134t140 -227.5t50 -316q0 -161 -41.5 -294.5t-122.5 -233.5t-209 -155.5t-291 -55.5h-631zM1040 1886l-225 -291
h-266l-227 291h229l131 -166l133 166h225z" />
    <glyph glyph-name="dcaron" unicode="&#x10f;" horiz-adv-x="1474" 
d="M862 532q0 68 -13 125.5t-41 106.5t-78 76.5t-118 27.5q-69 0 -120 -28t-80 -77t-42.5 -107t-13.5 -126q0 -65 15 -124t45 -108t80.5 -78.5t115.5 -29.5q68 0 118.5 28.5t78 78t40.5 108t13 127.5zM866 0v135h-4q-97 -164 -321 -164q-116 0 -208.5 47t-149.5 127
t-87 180.5t-30 213.5q0 109 30 206.5t87 174t148 122t204 45.5q97 0 181 -40.5t132 -116.5h4v532h291v-1462h-277zM1610 1462l-174 -291h-201l72 291h303z" />
    <glyph glyph-name="Dcroat" unicode="&#x110;" horiz-adv-x="1517" 
d="M463 1192v-318h328v-239h-328v-365h287q73 0 136 24t115.5 73.5t82.5 137t30 204.5q0 115 -22 201t-70 150.5t-131 98t-199 33.5h-229zM141 0v637h-135v237h135v588h631q144 0 264 -45.5t210 -134t140 -227.5t50 -316q0 -161 -41.5 -294.5t-122.5 -233.5t-209 -155.5
t-291 -55.5h-631z" />
    <glyph glyph-name="dcroat" unicode="&#x111;" horiz-adv-x="1298" 
d="M535 1161v154h317v147h291v-147h155v-154h-155v-1161h-277v135h-4q-97 -164 -321 -164q-116 0 -208.5 47t-149.5 127t-87 180.5t-30 213.5q0 109 30 206.5t87 174t148 122t204 45.5q97 0 181 -40.5t132 -116.5h4v231h-317zM862 532q0 68 -13 125.5t-41 106.5t-78 76.5
t-118 27.5q-69 0 -120 -28t-80 -77t-42.5 -107t-13.5 -126q0 -65 15 -124t45 -108t80.5 -78.5t115.5 -29.5q68 0 118.5 28.5t78 78t40.5 108t13 127.5z" />
    <glyph glyph-name="Emacron" unicode="&#x112;" horiz-adv-x="1327" 
d="M141 0v1462h1094v-270h-772v-313h708v-250h-708v-359h788v-270h-1110zM303 1657v153h764v-153h-764z" />
    <glyph glyph-name="emacron" unicode="&#x113;" horiz-adv-x="1175" 
d="M350 643h473q-21 114 -74.5 169.5t-156.5 55.5q-66 0 -115.5 -23t-74.5 -60t-37 -71.5t-15 -70.5zM1114 459h-764q6 -138 71 -203.5t189 -65.5q84 0 150 42.5t80 95.5h256q-116 -357 -496 -357q-248 0 -394.5 154t-146.5 403q0 158 67.5 285t191.5 200.5t282 73.5
q105 0 193.5 -34t150 -93.5t103 -138.5t58 -171.5t9.5 -190.5zM215 1268v153h764v-153h-764z" />
    <glyph glyph-name="Ebreve" unicode="&#x114;" horiz-adv-x="1327" 
d="M141 0v1462h1094v-270h-772v-313h708v-250h-708v-359h788v-270h-1110zM330 1890h133q6 -40 26.5 -69.5t50.5 -45t61.5 -23t64.5 -7.5q95 0 151 34.5t74 110.5h129q-38 -299 -365 -299q-148 0 -230.5 75.5t-94.5 223.5z" />
    <glyph glyph-name="ebreve" unicode="&#x115;" horiz-adv-x="1175" 
d="M350 643h473q-21 114 -74.5 169.5t-156.5 55.5q-66 0 -115.5 -23t-74.5 -60t-37 -71.5t-15 -70.5zM1114 459h-764q6 -138 71 -203.5t189 -65.5q84 0 150 42.5t80 95.5h256q-116 -357 -496 -357q-248 0 -394.5 154t-146.5 403q0 158 67.5 285t191.5 200.5t282 73.5
q105 0 193.5 -34t150 -93.5t103 -138.5t58 -171.5t9.5 -190.5zM256 1501h133q6 -40 26.5 -69.5t50.5 -45t61.5 -23t64.5 -7.5q95 0 151 34.5t74 110.5h129q-38 -299 -364 -299q-148 0 -231 76t-95 223z" />
    <glyph glyph-name="Edotaccent" unicode="&#x116;" horiz-adv-x="1327" 
d="M141 0v1462h1094v-270h-772v-313h708v-250h-708v-359h788v-270h-1110zM547 1614v239h276v-239h-276z" />
    <glyph glyph-name="edotaccent" unicode="&#x117;" horiz-adv-x="1175" 
d="M350 643h473q-21 114 -74.5 169.5t-156.5 55.5q-66 0 -115.5 -23t-74.5 -60t-37 -71.5t-15 -70.5zM1114 459h-764q6 -138 71 -203.5t189 -65.5q84 0 150 42.5t80 95.5h256q-116 -357 -496 -357q-248 0 -394.5 154t-146.5 403q0 158 67.5 285t191.5 200.5t282 73.5
q105 0 193.5 -34t150 -93.5t103 -138.5t58 -171.5t9.5 -190.5zM461 1225v239h276v-239h-276z" />
    <glyph glyph-name="Eogonek" unicode="&#x118;" horiz-adv-x="1327" 
d="M1153 -260l98 -45q-59 -74 -124 -106.5t-148 -32.5q-78 0 -129 26q-38 19 -64 59t-26 83q0 33 6.5 54.5t26.5 53.5q50 79 200 168h-852v1462h1094v-270h-772v-313h708v-250h-708v-359h788v-270h-125q-94 -84 -132 -139.5t-38 -100.5q0 -39 23.5 -60.5t56.5 -21.5t57.5 13
t59.5 49z" />
    <glyph glyph-name="eogonek" unicode="&#x119;" horiz-adv-x="1175" 
d="M739 -260l99 -45q-59 -74 -124.5 -106.5t-148.5 -32.5q-78 0 -129 26q-38 19 -64 59t-26 83q2 51 18 84.5t82 99.5q28 25 91 67q-86 6 -162 37q-149 60 -232.5 196t-83.5 320q0 158 67.5 285t191.5 200.5t282 73.5q105 0 193.5 -34t150 -93.5t103 -138.5t58 -171.5
t9.5 -190.5h-764q6 -138 71 -203.5t189 -65.5q84 0 150 42.5t80 95.5h256q-62 -190 -189 -273q-92 -63 -221 -78q-79 -72 -108 -118q-35 -56 -35 -99q0 -39 23.5 -60.5t56.5 -21.5t57 13t59 49zM350 643h473q-21 114 -74.5 169.5t-156.5 55.5q-66 0 -115.5 -23t-74.5 -60
t-37 -71.5t-15 -70.5z" />
    <glyph glyph-name="Ecaron" unicode="&#x11a;" horiz-adv-x="1327" 
d="M141 0v1462h1094v-270h-772v-313h708v-250h-708v-359h788v-270h-1110zM1040 1886l-225 -291h-266l-227 291h229l131 -166l133 166h225z" />
    <glyph glyph-name="ecaron" unicode="&#x11b;" horiz-adv-x="1175" 
d="M350 643h473q-21 114 -74.5 169.5t-156.5 55.5q-66 0 -115.5 -23t-74.5 -60t-37 -71.5t-15 -70.5zM1114 459h-764q6 -138 71 -203.5t189 -65.5q84 0 150 42.5t80 95.5h256q-116 -357 -496 -357q-248 0 -394.5 154t-146.5 403q0 158 67.5 285t191.5 200.5t282 73.5
q105 0 193.5 -34t150 -93.5t103 -138.5t58 -171.5t9.5 -190.5zM961 1497l-226 -291h-266l-227 291h229l131 -166l133 166h226z" />
    <glyph glyph-name="Gcircumflex" unicode="&#x11c;" horiz-adv-x="1554" 
d="M1231 0l-33 166q-157 -201 -401 -201q-165 0 -302 59.5t-227.5 162.5t-140 241.5t-49.5 296.5q0 218 84.5 392t249.5 277t385 103q113 0 218 -34.5t189.5 -98t140.5 -162.5t68 -221h-307q-29 121 -110 183.5t-199 62.5q-84 0 -152 -28t-113 -75t-75.5 -112t-44 -136.5
t-13.5 -150.5q0 -76 13.5 -145t44 -132.5t75.5 -110t113 -74t152 -27.5q158 0 246 80.5t102 234.5h-324v240h615v-791h-205zM440 1595l228 291h266l225 -291h-239l-127 166l-131 -166h-222z" />
    <glyph glyph-name="gcircumflex" unicode="&#x11d;" horiz-adv-x="1251" 
d="M604 250q118 0 183 85.5t65 207.5q0 68 -12.5 124t-40.5 102.5t-77.5 72.5t-117.5 26q-116 0 -175.5 -86.5t-59.5 -214.5q0 -61 12 -114.5t37.5 -100.5t73 -74.5t112.5 -27.5zM1128 1059v-991q0 -42 -4.5 -81t-19.5 -87.5t-39 -89.5t-66 -81t-98 -68t-138.5 -45
t-182.5 -17q-82 0 -159.5 20t-145.5 59.5t-112 107t-50 153.5h288q36 -146 217 -146q118 0 177 71t57 191v140h-4q-45 -81 -130.5 -122.5t-187.5 -41.5q-116 0 -204.5 41.5t-141.5 115.5t-79.5 168.5t-26.5 206.5q0 104 30 197.5t86 167t143.5 116.5t194.5 43
q108 0 186 -39.5t130 -129.5h4v141h276zM299 1206l227 291h267l225 -291h-240l-127 166l-131 -166h-221z" />
    <glyph glyph-name="Gbreve" unicode="&#x11e;" horiz-adv-x="1554" 
d="M1231 0l-33 166q-157 -201 -401 -201q-165 0 -302 59.5t-227.5 162.5t-140 241.5t-49.5 296.5q0 218 84.5 392t249.5 277t385 103q113 0 218 -34.5t189.5 -98t140.5 -162.5t68 -221h-307q-29 121 -110 183.5t-199 62.5q-84 0 -152 -28t-113 -75t-75.5 -112t-44 -136.5
t-13.5 -150.5q0 -76 13.5 -145t44 -132.5t75.5 -110t113 -74t152 -27.5q158 0 246 80.5t102 234.5h-324v240h615v-791h-205zM442 1890h133q6 -40 26.5 -69.5t50.5 -45t61.5 -23t64.5 -7.5q191 0 226 145h129q-38 -299 -365 -299q-148 0 -231 76t-95 223z" />
    <glyph glyph-name="gbreve" unicode="&#x11f;" horiz-adv-x="1251" 
d="M604 250q118 0 183 85.5t65 207.5q0 68 -12.5 124t-40.5 102.5t-77.5 72.5t-117.5 26q-116 0 -175.5 -86.5t-59.5 -214.5q0 -61 12 -114.5t37.5 -100.5t73 -74.5t112.5 -27.5zM1128 1059v-991q0 -42 -4.5 -81t-19.5 -87.5t-39 -89.5t-66 -81t-98 -68t-138.5 -45
t-182.5 -17q-82 0 -159.5 20t-145.5 59.5t-112 107t-50 153.5h288q36 -146 217 -146q118 0 177 71t57 191v140h-4q-45 -81 -130.5 -122.5t-187.5 -41.5q-116 0 -204.5 41.5t-141.5 115.5t-79.5 168.5t-26.5 206.5q0 104 30 197.5t86 167t143.5 116.5t194.5 43
q108 0 186 -39.5t130 -129.5h4v141h276zM270 1501h133q6 -40 26.5 -69.5t50.5 -45t61.5 -23t64.5 -7.5q95 0 151 34.5t74 110.5h130q-38 -299 -365 -299q-148 0 -231 76t-95 223z" />
    <glyph glyph-name="Gdotaccent" unicode="&#x120;" horiz-adv-x="1554" 
d="M1231 0l-33 166q-157 -201 -401 -201q-165 0 -302 59.5t-227.5 162.5t-140 241.5t-49.5 296.5q0 218 84.5 392t249.5 277t385 103q113 0 218 -34.5t189.5 -98t140.5 -162.5t68 -221h-307q-29 121 -110 183.5t-199 62.5q-84 0 -152 -28t-113 -75t-75.5 -112t-44 -136.5
t-13.5 -150.5q0 -76 13.5 -145t44 -132.5t75.5 -110t113 -74t152 -27.5q158 0 246 80.5t102 234.5h-324v240h615v-791h-205zM657 1614v239h277v-239h-277z" />
    <glyph glyph-name="gdotaccent" unicode="&#x121;" horiz-adv-x="1251" 
d="M604 250q118 0 183 85.5t65 207.5q0 68 -12.5 124t-40.5 102.5t-77.5 72.5t-117.5 26q-116 0 -175.5 -86.5t-59.5 -214.5q0 -61 12 -114.5t37.5 -100.5t73 -74.5t112.5 -27.5zM1128 1059v-991q0 -42 -4.5 -81t-19.5 -87.5t-39 -89.5t-66 -81t-98 -68t-138.5 -45
t-182.5 -17q-82 0 -159.5 20t-145.5 59.5t-112 107t-50 153.5h288q36 -146 217 -146q118 0 177 71t57 191v140h-4q-45 -81 -130.5 -122.5t-187.5 -41.5q-116 0 -204.5 41.5t-141.5 115.5t-79.5 168.5t-26.5 206.5q0 104 30 197.5t86 167t143.5 116.5t194.5 43
q108 0 186 -39.5t130 -129.5h4v141h276zM492 1225v239h276v-239h-276z" />
    <glyph glyph-name="Gcommaaccent" unicode="&#x122;" horiz-adv-x="1554" 
d="M1231 0l-33 166q-157 -201 -401 -201q-165 0 -302 59.5t-227.5 162.5t-140 241.5t-49.5 296.5q0 218 84.5 392t249.5 277t385 103q113 0 218 -34.5t189.5 -98t140.5 -162.5t68 -221h-307q-29 121 -110 183.5t-199 62.5q-84 0 -152 -28t-113 -75t-75.5 -112t-44 -136.5
t-13.5 -150.5q0 -76 13.5 -145t44 -132.5t75.5 -110t113 -74t152 -27.5q158 0 246 80.5t102 234.5h-324v240h615v-791h-205zM633 -293v191h297v-150q0 -50 -14.5 -86t-37.5 -56t-61 -31.5t-74.5 -15t-89.5 -3.5v75q51 5 79 22t38 54h-137z" />
    <glyph glyph-name="gcommaaccent" unicode="&#x123;" horiz-adv-x="1251" 
d="M604 250q118 0 183 85.5t65 207.5q0 68 -12.5 124t-40.5 102.5t-77.5 72.5t-117.5 26q-116 0 -175.5 -86.5t-59.5 -214.5q0 -61 12 -114.5t37.5 -100.5t73 -74.5t112.5 -27.5zM1128 1059v-991q0 -42 -4.5 -81t-19.5 -87.5t-39 -89.5t-66 -81t-98 -68t-138.5 -45
t-182.5 -17q-82 0 -159.5 20t-145.5 59.5t-112 107t-50 153.5h288q36 -146 217 -146q118 0 177 71t57 191v140h-4q-45 -81 -130.5 -122.5t-187.5 -41.5q-116 0 -204.5 41.5t-141.5 115.5t-79.5 168.5t-26.5 206.5q0 104 30 197.5t86 167t143.5 116.5t194.5 43
q108 0 186 -39.5t130 -129.5h4v141h276zM786 1462v-190h-297v149q0 50 14.5 86t37.5 56.5t61 32t75 15t89 3.5v-76q-51 -5 -79 -22t-38 -54h137z" />
    <glyph glyph-name="Hcircumflex" unicode="&#x124;" horiz-adv-x="1517" 
d="M141 0v1462h322v-561h592v561h321v-1462h-321v631h-592v-631h-322zM397 1595l228 291h266l225 -291h-239l-127 166l-132 -166h-221z" />
    <glyph glyph-name="hcircumflex" unicode="&#x125;" 
d="M111 0v1462h290v-551h7q53 86 137.5 131t171.5 45q113 0 190.5 -30.5t119.5 -90.5t59.5 -135.5t17.5 -179.5v-651h-291v598q0 134 -43 197t-143 63q-119 0 -172.5 -71t-53.5 -232v-555h-290zM254 1595l227 291h267l225 -291h-240l-127 166l-131 -166h-221z" />
    <glyph glyph-name="Hbar" unicode="&#x126;" horiz-adv-x="1517" 
d="M141 0v1462h322v-293h592v293h321v-1462h-321v610h-592v-610h-322zM463 860h592v156h-592v-156z" />
    <glyph glyph-name="hbar" unicode="&#x127;" horiz-adv-x="1275" 
d="M-12 1161v154h184v147h291v-147h289v-154h-289v-250h6q53 86 137.5 131t171.5 45q113 0 190.5 -30.5t119.5 -90.5t59.5 -135.5t17.5 -179.5v-651h-291v598q0 134 -43 197t-143 63q-119 0 -172 -71t-53 -232v-555h-291v1161h-184z" />
    <glyph glyph-name="Itilde" unicode="&#x128;" horiz-adv-x="604" 
d="M141 0v1462h322v-1462h-322zM545 1866h141q-9 -41 -17.5 -68.5t-25.5 -60.5t-40 -53t-60 -35t-86 -17q-41 0 -73.5 6.5t-92.5 28.5q-7 2 -23.5 7.5t-21.5 7.5t-17.5 6t-17.5 5.5t-14.5 3.5t-15.5 3t-13.5 1.5t-15.5 0.5q-69 0 -93 -86h-125q7 63 36 118t83 93t121 39
q60 0 148 -37q8 -3 27 -9.5t29 -10t25 -7.5t27.5 -6t24.5 -2q38 0 58 16t32 56z" />
    <glyph glyph-name="itilde" unicode="&#x129;" horiz-adv-x="528" 
d="M119 0v1059h291v-1059h-291zM500 1477h141q-9 -41 -17.5 -68.5t-25.5 -60.5t-40 -53t-60 -35t-86 -17q-41 0 -73.5 6.5t-92.5 28.5l-21 7l-19.5 6.5l-16.5 5.5t-16.5 5t-13.5 3.5t-14 3.5t-12.5 2t-13.5 1.5t-13 0.5q-68 0 -92 -86h-125q7 63 36 118t83 93t121 39
q59 0 147 -37q7 -2 27 -9.5t29.5 -10t25 -7t28 -6.5t24.5 -2q38 0 58 16t32 56z" />
    <glyph glyph-name="Imacron" unicode="&#x12a;" horiz-adv-x="604" 
d="M141 0v1462h322v-1462h-322zM-76 1657v153h764v-153h-764z" />
    <glyph glyph-name="imacron" unicode="&#x12b;" horiz-adv-x="528" 
d="M119 0v1059h291v-1059h-291zM-115 1268v153h764v-153h-764z" />
    <glyph glyph-name="Iogonek" unicode="&#x12e;" horiz-adv-x="604" 
d="M434 -260l88 -45q-53 -74 -112 -106.5t-134 -32.5q-67 0 -116 26q-33 19 -56.5 59t-23.5 83q0 34 5.5 55.5t23.5 52.5q46 79 182 168h-150v1462h322v-1462h-53q-85 -85 -119.5 -140.5t-34.5 -99.5q0 -39 21.5 -60.5t52.5 -21.5q30 0 52 13t52 49z" />
    <glyph glyph-name="iogonek" unicode="&#x12f;" horiz-adv-x="528" 
d="M391 -260l88 -45q-53 -74 -112 -106.5t-134 -32.5q-67 0 -116 26q-33 19 -56.5 59t-23.5 83q0 34 5.5 55.5t23.5 52.5q46 79 182 168h-129v1059h291v-1059h-43q-85 -85 -119.5 -140.5t-34.5 -99.5q0 -39 21.5 -60.5t52.5 -21.5q30 0 52 13t52 49zM410 1462v-239h-291v239
h291z" />
    <glyph glyph-name="Idotaccent" unicode="&#x130;" horiz-adv-x="604" 
d="M141 0v1462h322v-1462h-322zM166 1614v239h276v-239h-276z" />
    <glyph glyph-name="dotlessi" unicode="&#x131;" horiz-adv-x="528" 
d="M119 0v1059h291v-1059h-291z" />
    <glyph glyph-name="Jcircumflex" unicode="&#x134;" horiz-adv-x="1138" 
d="M997 1462v-1001q0 -46 -4 -87t-16.5 -93t-33.5 -94.5t-58.5 -85t-87 -71.5t-123.5 -47t-164 -18q-95 0 -179 26.5t-152.5 79.5t-109 142.5t-40.5 204.5v127h290v-66q0 -118 40.5 -180.5t146.5 -62.5q35 0 62.5 8.5t45.5 20t30.5 33.5t18.5 39t9 46t3.5 45.5t0.5 46.5v987
h321zM479 1595l228 291h266l225 -291h-240l-127 166l-131 -166h-221z" />
    <glyph glyph-name="jcircumflex" unicode="&#x135;" horiz-adv-x="569" 
d="M-39 -365v240q21 -8 64 -8q52 0 82 19.5t30 74.5v1098h291v-1112q0 -113 -31.5 -180.5t-114 -103.5t-227.5 -36q-53 0 -94 8zM-82 1206l227 291h267l225 -291h-240l-127 166l-131 -166h-221z" />
    <glyph glyph-name="Kcommaaccent" unicode="&#x136;" horiz-adv-x="1478" 
d="M141 0v1462h322v-606l571 606h402l-572 -577l627 -885h-404l-440 657l-184 -186v-471h-322zM608 -293v191h297v-150q0 -50 -14.5 -86t-37 -56t-60.5 -31.5t-74.5 -15t-89.5 -3.5v75q51 5 78.5 22t37.5 54h-137z" />
    <glyph glyph-name="kcommaaccent" unicode="&#x137;" horiz-adv-x="1175" 
d="M137 0v1462h291v-784l367 381h344l-400 -389l445 -670h-353l-290 473l-113 -108v-365h-291zM481 -293v191h297v-150q0 -50 -14.5 -86t-37 -56t-60.5 -31.5t-74.5 -15t-89.5 -3.5v75q51 5 78.5 22t37.5 54h-137z" />
    <glyph glyph-name="Lacute" unicode="&#x139;" 
d="M141 0v1462h322v-1192h713v-270h-1035zM717 1886l-316 -291h-202l196 291h322z" />
    <glyph glyph-name="lacute" unicode="&#x13a;" horiz-adv-x="528" 
d="M119 0v1462h291v-1462h-291zM637 1886l-315 -291h-203l196 291h322z" />
    <glyph glyph-name="Lcommaaccent" unicode="&#x13b;" 
d="M141 0v1462h322v-1192h713v-270h-1035zM500 -293v191h297v-150q0 -50 -14.5 -86t-37.5 -56t-61 -31.5t-74.5 -15t-89.5 -3.5v75q51 5 79 22t38 54h-137z" />
    <glyph glyph-name="lcommaaccent" unicode="&#x13c;" horiz-adv-x="528" 
d="M119 0v1462h291v-1462h-291zM115 -293v191h297v-150q0 -50 -14.5 -86t-37.5 -56t-61 -31.5t-74.5 -15t-89.5 -3.5v75q51 5 79 22t38 54h-137z" />
    <glyph glyph-name="Lcaron" unicode="&#x13d;" 
d="M141 0v1462h322v-1192h713v-270h-1035zM1032 1462l-174 -291h-201l72 291h303z" />
    <glyph glyph-name="lcaron" unicode="&#x13e;" horiz-adv-x="743" 
d="M119 0v1462h291v-1462h-291zM879 1462l-174 -291h-201l71 291h304z" />
    <glyph glyph-name="Ldot" unicode="&#x13f;" 
d="M141 0v1462h322v-1192h713v-270h-1035zM702 819v240h277v-240h-277z" />
    <glyph glyph-name="ldot" unicode="&#x140;" horiz-adv-x="890" 
d="M119 0v1462h291v-1462h-291zM532 819v240h277v-240h-277z" />
    <glyph glyph-name="Lslash" unicode="&#x141;" 
d="M141 0v438l-164 -114v229l164 115v794h322v-569l432 303v-229l-432 -303v-394h713v-270h-1035z" />
    <glyph glyph-name="lslash" unicode="&#x142;" horiz-adv-x="528" 
d="M119 0v586l-137 -109v209l137 109v667h291v-438l137 109v-209l-137 -109v-815h-291z" />
    <glyph glyph-name="Nacute" unicode="&#x143;" horiz-adv-x="1517" 
d="M141 0v1462h320l610 -981h4v981h301v-1462h-321l-609 979h-4v-979h-301zM1147 1886l-316 -291h-202l196 291h322z" />
    <glyph glyph-name="nacute" unicode="&#x144;" 
d="M111 0v1059h276v-148h6q53 87 140 131.5t184 44.5q113 0 190.5 -30.5t119.5 -90.5t59.5 -135.5t17.5 -179.5v-651h-291v598q0 134 -43 197t-143 63q-119 0 -172.5 -71t-53.5 -232v-555h-290zM993 1497l-315 -291h-203l197 291h321z" />
    <glyph glyph-name="Ncommaaccent" unicode="&#x145;" horiz-adv-x="1517" 
d="M141 0v1462h320l610 -981h4v981h301v-1462h-321l-609 979h-4v-979h-301zM614 -293v191h297v-150q0 -50 -14.5 -86t-37 -56t-60.5 -31.5t-74.5 -15t-89.5 -3.5v75q51 5 79 22t38 54h-138z" />
    <glyph glyph-name="ncommaaccent" unicode="&#x146;" 
d="M111 0v1059h276v-148h6q53 87 140 131.5t184 44.5q113 0 190.5 -30.5t119.5 -90.5t59.5 -135.5t17.5 -179.5v-651h-291v598q0 134 -43 197t-143 63q-119 0 -172.5 -71t-53.5 -232v-555h-290zM453 -293v191h297v-150q0 -50 -14.5 -86t-37.5 -56t-61 -31.5t-74.5 -15
t-89.5 -3.5v75q51 5 79 22t38 54h-137z" />
    <glyph glyph-name="Ncaron" unicode="&#x147;" horiz-adv-x="1517" 
d="M141 0v1462h320l610 -981h4v981h301v-1462h-321l-609 979h-4v-979h-301zM1106 1886l-225 -291h-267l-227 291h229l132 -166l133 166h225z" />
    <glyph glyph-name="ncaron" unicode="&#x148;" 
d="M111 0v1059h276v-148h6q53 87 140 131.5t184 44.5q113 0 190.5 -30.5t119.5 -90.5t59.5 -135.5t17.5 -179.5v-651h-291v598q0 134 -43 197t-143 63q-119 0 -172.5 -71t-53.5 -232v-555h-290zM971 1497l-226 -291h-266l-227 291h229l131 -166l133 166h226z" />
    <glyph glyph-name="Omacron" unicode="&#x14c;" horiz-adv-x="1593" 
d="M399 725q0 -76 13.5 -145t44 -132.5t75.5 -110t113 -74t152 -27.5q104 0 183 41.5t124.5 112.5t67.5 155t22 180q0 79 -13.5 150.5t-43.5 136.5t-75 112t-113 75t-152 28t-152 -28t-113 -75t-75.5 -112t-44 -136.5t-13.5 -150.5zM78 725q0 218 84.5 392t249.5 277
t385 103t385 -103t249.5 -277t84.5 -392q0 -158 -49.5 -296.5t-140 -241.5t-227.5 -162.5t-302 -59.5t-302 59.5t-227.5 162.5t-140 241.5t-49.5 296.5zM418 1657v153h764v-153h-764z" />
    <glyph glyph-name="omacron" unicode="&#x14d;" horiz-adv-x="1251" 
d="M369 528q0 -68 13 -125.5t41 -107t79.5 -77.5t122.5 -28q58 0 103 19t74 50.5t47.5 76t26 91.5t7.5 101q0 68 -13 125.5t-41 107.5t-80 78.5t-124 28.5q-71 0 -122.5 -28.5t-79.5 -78.5t-41 -107.5t-13 -125.5zM78 528q0 254 149 406.5t398 152.5q250 0 399.5 -152.5
t149.5 -406.5q0 -253 -149.5 -405t-399.5 -152q-249 0 -398 152.5t-149 404.5zM248 1268v153h764v-153h-764z" />
    <glyph glyph-name="Obreve" unicode="&#x14e;" horiz-adv-x="1593" 
d="M399 725q0 -76 13.5 -145t44 -132.5t75.5 -110t113 -74t152 -27.5q104 0 183 41.5t124.5 112.5t67.5 155t22 180q0 79 -13.5 150.5t-43.5 136.5t-75 112t-113 75t-152 28t-152 -28t-113 -75t-75.5 -112t-44 -136.5t-13.5 -150.5zM78 725q0 218 84.5 392t249.5 277
t385 103t385 -103t249.5 -277t84.5 -392q0 -158 -49.5 -296.5t-140 -241.5t-227.5 -162.5t-302 -59.5t-302 59.5t-227.5 162.5t-140 241.5t-49.5 296.5zM465 1890h133q6 -40 26.5 -69.5t50.5 -45t61.5 -23t64.5 -7.5q95 0 151 34.5t74 110.5h129q-38 -299 -364 -299
q-148 0 -231 76t-95 223z" />
    <glyph glyph-name="obreve" unicode="&#x14f;" horiz-adv-x="1251" 
d="M369 528q0 -68 13 -125.5t41 -107t79.5 -77.5t122.5 -28q58 0 103 19t74 50.5t47.5 76t26 91.5t7.5 101q0 68 -13 125.5t-41 107.5t-80 78.5t-124 28.5q-71 0 -122.5 -28.5t-79.5 -78.5t-41 -107.5t-13 -125.5zM78 528q0 254 149 406.5t398 152.5q250 0 399.5 -152.5
t149.5 -406.5q0 -253 -149.5 -405t-399.5 -152q-249 0 -398 152.5t-149 404.5zM293 1501h133q6 -40 26.5 -69.5t50.5 -45t61.5 -23t64.5 -7.5q95 0 151 34.5t74 110.5h129q-38 -299 -365 -299q-148 0 -230.5 75.5t-94.5 223.5z" />
    <glyph glyph-name="Ohungarumlaut" unicode="&#x150;" horiz-adv-x="1593" 
d="M399 725q0 -76 13.5 -145t44 -132.5t75.5 -110t113 -74t152 -27.5q104 0 183 41.5t124.5 112.5t67.5 155t22 180q0 79 -13.5 150.5t-43.5 136.5t-75 112t-113 75t-152 28t-152 -28t-113 -75t-75.5 -112t-44 -136.5t-13.5 -150.5zM78 725q0 218 84.5 392t249.5 277
t385 103t385 -103t249.5 -277t84.5 -392q0 -158 -49.5 -296.5t-140 -241.5t-227.5 -162.5t-302 -59.5t-302 59.5t-227.5 162.5t-140 241.5t-49.5 296.5zM1411 1886l-305 -291h-203l187 291h321zM987 1886l-305 -291h-203l187 291h321z" />
    <glyph glyph-name="ohungarumlaut" unicode="&#x151;" horiz-adv-x="1251" 
d="M369 528q0 -68 13 -125.5t41 -107t79.5 -77.5t122.5 -28q58 0 103 19t74 50.5t47.5 76t26 91.5t7.5 101q0 68 -13 125.5t-41 107.5t-80 78.5t-124 28.5q-71 0 -122.5 -28.5t-79.5 -78.5t-41 -107.5t-13 -125.5zM78 528q0 254 149 406.5t398 152.5q250 0 399.5 -152.5
t149.5 -406.5q0 -253 -149.5 -405t-399.5 -152q-249 0 -398 152.5t-149 404.5zM1241 1497l-305 -291h-203l187 291h321zM817 1497l-305 -291h-203l187 291h321z" />
    <glyph glyph-name="OE" unicode="&#x152;" horiz-adv-x="2238" 
d="M1102 569v349q0 137 -89 223t-227 86q-103 0 -180 -43t-121 -116.5t-65 -159t-21 -181.5q0 -94 21.5 -178.5t65.5 -156t119.5 -114t174.5 -42.5q147 0 234.5 91.5t87.5 241.5zM1114 0v111h-4q-64 -70 -158.5 -108t-193.5 -38q-158 0 -288.5 61.5t-215 166.5t-130.5 241.5
t-46 288.5q0 122 29 236t87.5 211.5t140 170.5t192 114.5t237.5 41.5q236 0 346 -139h4v104h1024v-270h-725v-313h664v-250h-664v-359h739v-270h-1038z" />
    <glyph glyph-name="oe" unicode="&#x153;" horiz-adv-x="1896" 
d="M1837 459h-756q0 -121 64.5 -195t187.5 -74q154 0 213 146h283q-51 -172 -183 -268.5t-313 -96.5q-120 0 -222.5 44t-160.5 137q-54 -91 -156.5 -136t-218.5 -45q-119 0 -215 45.5t-157 124t-93 179.5t-32 215q0 155 63 280.5t182.5 198.5t274.5 73q115 0 212.5 -40
t152.5 -127q50 76 152.5 121.5t201.5 45.5q110 0 198 -33.5t147.5 -91t99.5 -137.5t57.5 -171t17.5 -195zM594 190q56 0 99 21.5t67.5 54.5t40 80t21 91t5.5 95q0 48 -4.5 90t-19.5 89t-39 80t-66 55t-98 22q-64 0 -111 -30t-72 -81.5t-36.5 -109t-11.5 -123.5
q0 -59 11 -114t35.5 -106.5t70.5 -82.5t108 -31zM1081 643h465q-5 106 -63 165.5t-172 59.5q-106 0 -165.5 -63t-64.5 -162z" />
    <glyph glyph-name="Racute" unicode="&#x154;" horiz-adv-x="1478" 
d="M463 1212v-411h352q111 0 166 50.5t55 158.5q0 104 -55 153t-166 49h-352zM141 0v1462h789q192 0 310 -116.5t118 -286.5q0 -274 -232 -367v-4q194 -53 213 -342q1 -12 3 -61.5t4.5 -79.5t8.5 -73t17.5 -76t28.5 -56h-322q-17 41 -25.5 98.5t-14.5 136t-11 115.5
q-18 119 -71.5 170t-172.5 51h-321v-571h-322zM1049 1886l-316 -291h-203l197 291h322z" />
    <glyph glyph-name="racute" unicode="&#x155;" horiz-adv-x="796" 
d="M111 0v1059h276v-197h4q41 100 135 162.5t203 62.5q31 0 64 -10v-270q-45 10 -105 10q-78 0 -135 -26t-89.5 -74t-47.5 -107t-15 -133v-477h-290zM698 1497l-315 -291h-203l197 291h321z" />
    <glyph glyph-name="Rcommaaccent" unicode="&#x156;" horiz-adv-x="1478" 
d="M463 1212v-411h352q111 0 166 50.5t55 158.5q0 104 -55 153t-166 49h-352zM141 0v1462h789q192 0 310 -116.5t118 -286.5q0 -274 -232 -367v-4q194 -53 213 -342q1 -12 3 -61.5t4.5 -79.5t8.5 -73t17.5 -76t28.5 -56h-322q-17 41 -25.5 98.5t-14.5 136t-11 115.5
q-18 119 -71.5 170t-172.5 51h-321v-571h-322zM610 -293v191h297v-150q0 -50 -14.5 -86t-37 -56t-60.5 -31.5t-74.5 -15t-89.5 -3.5v75q51 5 79 22t38 54h-138z" />
    <glyph glyph-name="rcommaaccent" unicode="&#x157;" horiz-adv-x="796" 
d="M111 0v1059h276v-197h4q41 100 135 162.5t203 62.5q31 0 64 -10v-270q-45 10 -105 10q-78 0 -135 -26t-89.5 -74t-47.5 -107t-15 -133v-477h-290zM113 -293v191h297v-150q0 -50 -14.5 -86t-37.5 -56t-61 -31.5t-74.5 -15t-89.5 -3.5v75q51 5 79 22t38 54h-137z" />
    <glyph glyph-name="Rcaron" unicode="&#x158;" horiz-adv-x="1478" 
d="M463 1212v-411h352q111 0 166 50.5t55 158.5q0 104 -55 153t-166 49h-352zM141 0v1462h789q192 0 310 -116.5t118 -286.5q0 -274 -232 -367v-4q194 -53 213 -342q1 -12 3 -61.5t4.5 -79.5t8.5 -73t17.5 -76t28.5 -56h-322q-17 41 -25.5 98.5t-14.5 136t-11 115.5
q-18 119 -71.5 170t-172.5 51h-321v-571h-322zM1049 1886l-226 -291h-266l-227 291h229l131 -166l133 166h226z" />
    <glyph glyph-name="rcaron" unicode="&#x159;" horiz-adv-x="796" 
d="M111 0v1059h276v-197h4q41 100 135 162.5t203 62.5q31 0 64 -10v-270q-45 10 -105 10q-78 0 -135 -26t-89.5 -74t-47.5 -107t-15 -133v-477h-290zM795 1497l-226 -291h-266l-227 291h229l131 -166l133 166h226z" />
    <glyph glyph-name="Sacute" unicode="&#x15a;" horiz-adv-x="1329" 
d="M49 485h311q0 -137 91.5 -203.5t232.5 -66.5q48 0 93 8t91 26.5t73.5 56.5t27.5 91q0 33 -12 60t-38 48t-53 36t-72 29t-79 23t-90 23t-90 23q-73 18 -129.5 37.5t-117 54t-100 77t-65 106t-25.5 141.5q0 108 48 195t127 139.5t174.5 80t197.5 27.5q94 0 178.5 -16
t159.5 -52.5t129.5 -90.5t86.5 -133.5t32 -178.5h-311q-4 63 -27 107.5t-63.5 68.5t-88.5 34.5t-110 10.5q-56 0 -103.5 -15t-82.5 -54t-35 -97q0 -80 70 -113.5t354 -104.5l12 -3q38 -9 59.5 -14.5t73 -23t85.5 -36.5t78.5 -53.5t71.5 -74t46.5 -98t19.5 -126.5
q0 -208 -159 -338.5t-449 -130.5q-125 0 -235.5 31.5t-199 93t-139.5 163.5t-49 232zM1069 1886l-315 -291h-203l197 291h321z" />
    <glyph glyph-name="sacute" unicode="&#x15b;" horiz-adv-x="1099" 
d="M59 344h277q0 -88 65 -133t158 -45q74 0 132.5 33t58.5 102q0 26 -15.5 47t-40 36t-70 30t-89.5 25.5t-115 25.5q-59 14 -101 26.5t-89.5 35.5t-77 51.5t-49 72t-19.5 97.5q0 78 26.5 138.5t70 97.5t104.5 61t124 33t136 9q72 0 134.5 -10t122 -34t102.5 -61.5t72 -96.5
t36 -135h-277q-10 143 -198 143q-162 0 -162 -98q0 -22 9 -39.5t28.5 -31t40 -23t54.5 -19t60 -15t69 -15t69 -15.5q58 -13 101 -27t89.5 -38t76 -53.5t49 -75.5t19.5 -103q0 -81 -27.5 -145t-73 -105.5t-109 -68.5t-131 -38.5t-142.5 -11.5q-97 0 -181 19.5t-155.5 61
t-114.5 116.5t-47 176zM952 1497l-315 -291h-203l197 291h321z" />
    <glyph glyph-name="Scircumflex" unicode="&#x15c;" horiz-adv-x="1329" 
d="M49 485h311q0 -137 91.5 -203.5t232.5 -66.5q48 0 93 8t91 26.5t73.5 56.5t27.5 91q0 33 -12 60t-38 48t-53 36t-72 29t-79 23t-90 23t-90 23q-73 18 -129.5 37.5t-117 54t-100 77t-65 106t-25.5 141.5q0 108 48 195t127 139.5t174.5 80t197.5 27.5q94 0 178.5 -16
t159.5 -52.5t129.5 -90.5t86.5 -133.5t32 -178.5h-311q-4 63 -27 107.5t-63.5 68.5t-88.5 34.5t-110 10.5q-56 0 -103.5 -15t-82.5 -54t-35 -97q0 -80 70 -113.5t354 -104.5l12 -3q38 -9 59.5 -14.5t73 -23t85.5 -36.5t78.5 -53.5t71.5 -74t46.5 -98t19.5 -126.5
q0 -208 -159 -338.5t-449 -130.5q-125 0 -235.5 31.5t-199 93t-139.5 163.5t-49 232zM313 1595l228 291h266l225 -291h-239l-127 166l-131 -166h-222z" />
    <glyph glyph-name="scircumflex" unicode="&#x15d;" horiz-adv-x="1099" 
d="M59 344h277q0 -88 65 -133t158 -45q74 0 132.5 33t58.5 102q0 26 -15.5 47t-40 36t-70 30t-89.5 25.5t-115 25.5q-59 14 -101 26.5t-89.5 35.5t-77 51.5t-49 72t-19.5 97.5q0 78 26.5 138.5t70 97.5t104.5 61t124 33t136 9q72 0 134.5 -10t122 -34t102.5 -61.5t72 -96.5
t36 -135h-277q-10 143 -198 143q-162 0 -162 -98q0 -22 9 -39.5t28.5 -31t40 -23t54.5 -19t60 -15t69 -15t69 -15.5q58 -13 101 -27t89.5 -38t76 -53.5t49 -75.5t19.5 -103q0 -81 -27.5 -145t-73 -105.5t-109 -68.5t-131 -38.5t-142.5 -11.5q-97 0 -181 19.5t-155.5 61
t-114.5 116.5t-47 176zM205 1206l227 291h266l226 -291h-240l-127 166l-131 -166h-221z" />
    <glyph glyph-name="Scedilla" unicode="&#x15e;" horiz-adv-x="1329" 
d="M403 -399l43 98q88 -37 172 -37q82 0 82 70q0 65 -82 65q-43 0 -81 -14l-43 49l98 137q-80 6 -156 27q-113 31 -199 93t-138 164.5t-50 231.5h311q0 -137 91.5 -203.5t232.5 -66.5q48 0 93 8t91 26.5t73.5 56.5t27.5 91q0 33 -12 60t-38 48t-53 36t-72 29t-79 23t-90 23
t-90 23q-73 18 -129.5 37.5t-117 54t-100 77t-65 106t-25.5 141.5q0 108 48 195t127 139.5t174.5 80t197.5 27.5q94 0 178.5 -16t159.5 -52.5t129.5 -90.5t86.5 -133.5t32 -178.5h-311q-4 63 -27 107.5t-63.5 68.5t-88.5 34.5t-110 10.5q-56 0 -103.5 -15t-82.5 -54t-35 -97
q0 -80 70 -113.5t354 -104.5l12 -3q38 -9 59.5 -14.5t73 -23t85.5 -36.5t78.5 -53.5t71.5 -74t46.5 -98t19.5 -126.5q0 -154 -88 -266.5t-258 -167.5q-100 -32 -246 -35l-53 -71l2 -5q37 15 72 15q76 0 132 -37t56 -107q0 -57 -20.5 -98.5t-56 -63.5t-76 -32t-87.5 -10
q-90 0 -137.5 9.5t-116.5 35.5z" />
    <glyph glyph-name="scedilla" unicode="&#x15f;" horiz-adv-x="1099" 
d="M295 -399l43 98q88 -37 172 -37q82 0 82 70q0 65 -82 65q-44 0 -82 -14l-43 49l102 141q-27 3 -110 17q-138 30 -225 118.5t-93 235.5h277q0 -88 65 -133t158 -45q74 0 132.5 33t58.5 102q0 26 -15.5 47t-40 36t-70 30t-89.5 25.5t-115 25.5q-59 14 -101 26.5t-89.5 35.5
t-77 51.5t-49 72t-19.5 97.5q0 78 26.5 138.5t70 97.5t104.5 61t124 33t136 9q72 0 134.5 -10t122 -34t102.5 -61.5t72 -96.5t36 -135h-277q-10 143 -198 143q-162 0 -162 -98q0 -22 9 -39.5t28.5 -31t40 -23t54.5 -19t60 -15t69 -15t69 -15.5q58 -13 101 -27t89.5 -38
t76 -53.5t49 -75.5t19.5 -103q0 -147 -84.5 -234.5t-222.5 -115.5q-80 -16 -149 -19l-58 -77l2 -5q38 15 72 15q76 0 132 -37t56 -107q0 -57 -20.5 -98.5t-56 -63.5t-75.5 -32t-87 -10q-90 0 -137.5 9.5t-116.5 35.5z" />
    <glyph glyph-name="Scaron" unicode="&#x160;" horiz-adv-x="1329" 
d="M49 485h311q0 -137 91.5 -203.5t232.5 -66.5q48 0 93 8t91 26.5t73.5 56.5t27.5 91q0 33 -12 60t-38 48t-53 36t-72 29t-79 23t-90 23t-90 23q-73 18 -129.5 37.5t-117 54t-100 77t-65 106t-25.5 141.5q0 108 48 195t127 139.5t174.5 80t197.5 27.5q94 0 178.5 -16
t159.5 -52.5t129.5 -90.5t86.5 -133.5t32 -178.5h-311q-4 63 -27 107.5t-63.5 68.5t-88.5 34.5t-110 10.5q-56 0 -103.5 -15t-82.5 -54t-35 -97q0 -80 70 -113.5t354 -104.5l12 -3q38 -9 59.5 -14.5t73 -23t85.5 -36.5t78.5 -53.5t71.5 -74t46.5 -98t19.5 -126.5
q0 -208 -159 -338.5t-449 -130.5q-125 0 -235.5 31.5t-199 93t-139.5 163.5t-49 232zM1030 1886l-225 -291h-266l-228 291h230l131 -166l133 166h225z" />
    <glyph glyph-name="scaron" unicode="&#x161;" horiz-adv-x="1099" 
d="M59 344h277q0 -88 65 -133t158 -45q74 0 132.5 33t58.5 102q0 26 -15.5 47t-40 36t-70 30t-89.5 25.5t-115 25.5q-59 14 -101 26.5t-89.5 35.5t-77 51.5t-49 72t-19.5 97.5q0 78 26.5 138.5t70 97.5t104.5 61t124 33t136 9q72 0 134.5 -10t122 -34t102.5 -61.5t72 -96.5
t36 -135h-277q-10 143 -198 143q-162 0 -162 -98q0 -22 9 -39.5t28.5 -31t40 -23t54.5 -19t60 -15t69 -15t69 -15.5q58 -13 101 -27t89.5 -38t76 -53.5t49 -75.5t19.5 -103q0 -81 -27.5 -145t-73 -105.5t-109 -68.5t-131 -38.5t-142.5 -11.5q-97 0 -181 19.5t-155.5 61
t-114.5 116.5t-47 176zM920 1497l-226 -291h-266l-227 291h229l131 -166l133 166h226z" />
    <glyph glyph-name="Tcommaaccent" unicode="&#x162;" horiz-adv-x="1251" 
d="M465 0v1192h-438v270h1198v-270h-439v-1192h-321zM475 -293v191h297v-150q0 -50 -14.5 -86t-37 -56t-60.5 -31.5t-74.5 -15t-89.5 -3.5v75q51 5 78.5 22t37.5 54h-137z" />
    <glyph glyph-name="tcommaaccent" unicode="&#x163;" horiz-adv-x="720" 
d="M479 1376v-317h213v-195h-213v-524q0 -74 24.5 -98.5t98.5 -24.5q54 0 90 8v-227q-61 -10 -170 -10q-59 0 -104.5 5.5t-90.5 22t-74 43.5t-47 73t-18 108v624h-176v195h176v317h291zM287 -293v191h297v-150q0 -50 -14.5 -86t-37.5 -56t-61 -31.5t-74.5 -15t-89.5 -3.5v75
q51 5 79 22t38 54h-137z" />
    <glyph glyph-name="Tcaron" unicode="&#x164;" horiz-adv-x="1251" 
d="M465 0v1192h-438v270h1198v-270h-439v-1192h-321zM983 1886l-225 -291h-266l-228 291h230l131 -166l133 166h225z" />
    <glyph glyph-name="tcaron" unicode="&#x165;" horiz-adv-x="909" 
d="M1044 1462l-174 -291h-200l71 291h303zM479 1376v-317h213v-195h-213v-524q0 -74 24.5 -98.5t98.5 -24.5q54 0 90 8v-227q-61 -10 -170 -10q-59 0 -104.5 5.5t-90.5 22t-74 43.5t-47 73t-18 108v624h-176v195h176v317h291z" />
    <glyph glyph-name="Tbar" unicode="&#x166;" horiz-adv-x="1251" 
d="M147 803v153h318v236h-438v270h1198v-270h-439v-236h330v-153h-330v-803h-321v803h-318z" />
    <glyph glyph-name="tbar" unicode="&#x167;" horiz-adv-x="720" 
d="M-16 555v154h204v155h-176v195h176v317h291v-317h213v-195h-213v-155h230v-154h-230v-215q0 -74 24.5 -98.5t98.5 -24.5q54 0 90 8v-227q-61 -10 -170 -10q-59 0 -104.5 5.5t-90.5 22t-74 43.5t-47 73t-18 108v315h-204z" />
    <glyph glyph-name="Utilde" unicode="&#x168;" horiz-adv-x="1517" 
d="M1382 1462v-909q0 -291 -162.5 -439.5t-461.5 -148.5q-302 0 -462.5 147t-160.5 441v909h322v-909q0 -53 6 -95t25 -85.5t51.5 -72t88 -46.5t130.5 -18q168 0 235.5 74.5t67.5 242.5v909h321zM999 1866h142q-11 -52 -23.5 -85.5t-37 -70t-67 -56t-102.5 -22.5
q-41 0 -73.5 6.5t-92.5 28.5q-7 2 -23.5 7.5t-21.5 7.5t-17.5 6t-17.5 5.5t-14.5 3.5t-15.5 3t-13.5 1.5t-15.5 0.5q-68 0 -92 -86h-125q7 63 36 118t83 93t121 39q59 0 147 -37q8 -3 27 -9.5t29 -10t25 -7.5t27.5 -6t24.5 -2q38 0 58 16t32 56z" />
    <glyph glyph-name="utilde" unicode="&#x169;" 
d="M1104 1059v-1059h-277v147h-6q-53 -87 -139.5 -131.5t-183.5 -44.5q-113 0 -190.5 30.5t-119.5 91t-59.5 136t-17.5 179.5v651h290v-598q0 -134 43 -197t144 -63q119 0 172 71t53 232v555h291zM846 1477h141q-9 -41 -17.5 -68.5t-25.5 -60.5t-40 -53t-60 -35t-86 -17
q-41 0 -73.5 6.5t-92.5 28.5q-7 2 -23.5 7.5t-21.5 7.5t-17.5 6t-17.5 5.5t-14.5 3.5t-15.5 3t-13.5 1.5t-15.5 0.5q-69 0 -93 -86h-124q11 99 75.5 174t163.5 76q60 0 148 -37q8 -3 27 -9.5t29 -10t25 -7.5t27.5 -6t24.5 -2q38 0 58 16t32 56z" />
    <glyph glyph-name="Umacron" unicode="&#x16a;" horiz-adv-x="1517" 
d="M1382 1462v-909q0 -291 -162.5 -439.5t-461.5 -148.5q-302 0 -462.5 147t-160.5 441v909h322v-909q0 -53 6 -95t25 -85.5t51.5 -72t88 -46.5t130.5 -18q168 0 235.5 74.5t67.5 242.5v909h321zM381 1657v153h764v-153h-764z" />
    <glyph glyph-name="umacron" unicode="&#x16b;" 
d="M1104 1059v-1059h-277v147h-6q-53 -87 -139.5 -131.5t-183.5 -44.5q-113 0 -190.5 30.5t-119.5 91t-59.5 136t-17.5 179.5v651h290v-598q0 -134 43 -197t144 -63q119 0 172 71t53 232v555h291zM231 1268v153h764v-153h-764z" />
    <glyph glyph-name="Ubreve" unicode="&#x16c;" horiz-adv-x="1517" 
d="M1382 1462v-909q0 -291 -162.5 -439.5t-461.5 -148.5q-302 0 -462.5 147t-160.5 441v909h322v-909q0 -53 6 -95t25 -85.5t51.5 -72t88 -46.5t130.5 -18q168 0 235.5 74.5t67.5 242.5v909h321zM414 1890h133q6 -40 26.5 -69.5t50.5 -45t61.5 -23t64.5 -7.5q95 0 151 34.5
t74 110.5h129q-38 -299 -365 -299q-148 0 -230.5 75.5t-94.5 223.5z" />
    <glyph glyph-name="ubreve" unicode="&#x16d;" 
d="M1104 1059v-1059h-277v147h-6q-53 -87 -139.5 -131.5t-183.5 -44.5q-113 0 -190.5 30.5t-119.5 91t-59.5 136t-17.5 179.5v651h290v-598q0 -134 43 -197t144 -63q119 0 172 71t53 232v555h291zM268 1501h133q6 -40 26.5 -69.5t50.5 -45t61.5 -23t64.5 -7.5q95 0 151 34.5
t74 110.5h129q-38 -299 -364 -299q-148 0 -231 76t-95 223z" />
    <glyph glyph-name="Uring" unicode="&#x16e;" horiz-adv-x="1517" 
d="M1382 1462v-909q0 -291 -162.5 -439.5t-461.5 -148.5q-302 0 -462.5 147t-160.5 441v909h322v-909q0 -53 6 -95t25 -85.5t51.5 -72t88 -46.5t130.5 -18q168 0 235.5 74.5t67.5 242.5v909h321zM506 1769q0 104 73 177t177 73t178 -73t74 -177q0 -105 -73.5 -176
t-178.5 -71t-177.5 71t-72.5 176zM627 1769q0 -61 35 -100t94 -39t95 39t36 100t-36 100.5t-95 39.5t-94 -39.5t-35 -100.5z" />
    <glyph glyph-name="uring" unicode="&#x16f;" 
d="M1104 1059v-1059h-277v147h-6q-53 -87 -139.5 -131.5t-183.5 -44.5q-113 0 -190.5 30.5t-119.5 91t-59.5 136t-17.5 179.5v651h290v-598q0 -134 43 -197t144 -63q119 0 172 71t53 232v555h291zM360 1401q0 104 73 177t177 73t178 -73t74 -177q0 -105 -73.5 -176.5
t-178.5 -71.5t-177.5 71.5t-72.5 176.5zM481 1401q0 -61 35 -100t94 -39t95 39t36 100t-36 100t-95 39t-94 -39t-35 -100z" />
    <glyph glyph-name="Uhungarumlaut" unicode="&#x170;" horiz-adv-x="1517" 
d="M1382 1462v-909q0 -291 -162.5 -439.5t-461.5 -148.5q-302 0 -462.5 147t-160.5 441v909h322v-909q0 -53 6 -95t25 -85.5t51.5 -72t88 -46.5t130.5 -18q168 0 235.5 74.5t67.5 242.5v909h321zM1366 1886l-305 -291h-203l186 291h322zM942 1886l-305 -291h-203l187 291
h321z" />
    <glyph glyph-name="uhungarumlaut" unicode="&#x171;" 
d="M1104 1059v-1059h-277v147h-6q-53 -87 -139.5 -131.5t-183.5 -44.5q-113 0 -190.5 30.5t-119.5 91t-59.5 136t-17.5 179.5v651h290v-598q0 -134 43 -197t144 -63q119 0 172 71t53 232v555h291zM1219 1497l-306 -291h-202l186 291h322zM795 1497l-306 -291h-202l186 291
h322z" />
    <glyph glyph-name="Uogonek" unicode="&#x172;" horiz-adv-x="1517" 
d="M907 -260l99 -45q-59 -74 -124.5 -106.5t-148.5 -32.5q-78 0 -129 26q-38 19 -64 59t-26 83q2 51 18 84.5t82 99.5q7 6 78 59q-250 15 -395 142q-162 143 -162 444v909h322v-909q0 -53 6 -95t25 -85.5t51.5 -72t88 -46.5t130.5 -18q168 0 235.5 74.5t67.5 242.5v909h321
v-909q0 -299 -165 -442q-142 -124 -371 -142q-81 -77 -101 -110q-34 -55 -34 -99q0 -39 23.5 -60.5t56.5 -21.5t57 13t59 49z" />
    <glyph glyph-name="uogonek" unicode="&#x173;" 
d="M973 -260l90 -45q-55 -74 -114 -106.5t-134 -32.5q-70 0 -119 26q-34 20 -58 59.5t-24 82.5q0 55 31 108q46 79 182 168v147h-6q-53 -87 -139.5 -131.5t-183.5 -44.5q-113 0 -190.5 30.5t-119.5 91t-59.5 136t-17.5 179.5v651h290v-598q0 -134 43 -197t144 -63
q119 0 172 71t53 232v555h291v-1059h-156q-86 -83 -119.5 -138.5t-33.5 -101.5q0 -40 20 -61t51 -21t53 12.5t54 49.5z" />
    <glyph glyph-name="Wcircumflex" unicode="&#x174;" horiz-adv-x="1933" 
d="M1927 1462l-393 -1462h-320l-247 995h-4l-244 -995h-326l-387 1462h322l231 -995h4l254 995h301l250 -1007h4l240 1007h315zM616 1595l228 291h266l225 -291h-239l-127 166l-131 -166h-222z" />
    <glyph glyph-name="wcircumflex" unicode="&#x175;" horiz-adv-x="1667" 
d="M1655 1059l-334 -1059h-299l-188 711h-5l-180 -711h-301l-336 1059h307l195 -719h4l176 719h283l180 -717h4l195 717h299zM481 1206l228 291h266l225 -291h-239l-127 166l-132 -166h-221z" />
    <glyph glyph-name="Ycircumflex" unicode="&#x176;" horiz-adv-x="1366" 
d="M520 0v569l-538 893h362l342 -577l340 577h358l-542 -901v-561h-322zM336 1595l227 291h266l226 -291h-240l-127 166l-131 -166h-221z" />
    <glyph glyph-name="ycircumflex" unicode="&#x177;" horiz-adv-x="1062" 
d="M1075 1059l-442 -1192q-47 -128 -131.5 -184t-233.5 -56q-70 0 -178 11v239q111 -12 170 -10q55 6 84 43.5t29 89.5q0 34 -13 66l-372 993h311l240 -725h4l231 725h301zM188 1206l228 291h266l225 -291h-239l-127 166l-131 -166h-222z" />
    <glyph glyph-name="Ydieresis" unicode="&#x178;" horiz-adv-x="1366" 
d="M520 0v569l-538 893h362l342 -577l340 577h358l-542 -901v-561h-322zM338 1614v239h276v-239h-276zM760 1614v239h276v-239h-276z" />
    <glyph glyph-name="Zacute" unicode="&#x179;" horiz-adv-x="1327" 
d="M47 0v254l784 938h-722v270h1151v-254l-785 -938h805v-270h-1233zM1067 1886l-315 -291h-203l196 291h322z" />
    <glyph glyph-name="zacute" unicode="&#x17a;" horiz-adv-x="1062" 
d="M45 0v219l551 621h-510v219h893v-219l-551 -621h590v-219h-973zM942 1497l-315 -291h-203l197 291h321z" />
    <glyph glyph-name="Zdotaccent" unicode="&#x17b;" horiz-adv-x="1327" 
d="M47 0v254l784 938h-722v270h1151v-254l-785 -938h805v-270h-1233zM547 1614v239h276v-239h-276z" />
    <glyph glyph-name="zdotaccent" unicode="&#x17c;" horiz-adv-x="1062" 
d="M45 0v219l551 621h-510v219h893v-219l-551 -621h590v-219h-973zM403 1225v239h277v-239h-277z" />
    <glyph glyph-name="Zcaron" unicode="&#x17d;" horiz-adv-x="1327" 
d="M47 0v254l784 938h-722v270h1151v-254l-785 -938h805v-270h-1233zM1038 1886l-225 -291h-266l-228 291h230l131 -166l133 166h225z" />
    <glyph glyph-name="zcaron" unicode="&#x17e;" horiz-adv-x="1062" 
d="M45 0v219l551 621h-510v219h893v-219l-551 -621h590v-219h-973zM897 1497l-225 -291h-266l-228 291h230l131 -166l133 166h225z" />
    <glyph glyph-name="florin" unicode="&#x192;" horiz-adv-x="1138" 
d="M-10 -342l39 219q40 -6 82 -6q74 -1 104 33t43 112l129 674h-188l37 195h186l49 260q37 195 130 273.5t292 78.5q88 0 154 -14l-37 -219q-31 14 -82 14q-77 0 -110 -29t-46 -98l-51 -266h201l-33 -195h-205l-115 -635q-16 -87 -34.5 -147t-50 -112t-76.5 -81.5t-111 -46
t-156 -16.5q-94 0 -151 6z" />
    <glyph glyph-name="Scommaaccent" unicode="&#x218;" horiz-adv-x="1329" 
d="M49 485h311q0 -137 91.5 -203.5t232.5 -66.5q48 0 93 8t91 26.5t73.5 56.5t27.5 91q0 33 -12 60t-38 48t-53 36t-72 29t-79 23t-90 23t-90 23q-73 18 -129.5 37.5t-117 54t-100 77t-65 106t-25.5 141.5q0 108 48 195t127 139.5t174.5 80t197.5 27.5q94 0 178.5 -16
t159.5 -52.5t129.5 -90.5t86.5 -133.5t32 -178.5h-311q-4 63 -27 107.5t-63.5 68.5t-88.5 34.5t-110 10.5q-56 0 -103.5 -15t-82.5 -54t-35 -97q0 -80 70 -113.5t354 -104.5l12 -3q38 -9 59.5 -14.5t73 -23t85.5 -36.5t78.5 -53.5t71.5 -74t46.5 -98t19.5 -126.5
q0 -208 -159 -338.5t-449 -130.5q-125 0 -235.5 31.5t-199 93t-139.5 163.5t-49 232zM510 -293v191h297v-150q0 -50 -14.5 -86t-37.5 -56t-61 -31.5t-74.5 -15t-89.5 -3.5v75q51 5 79 22t38 54h-137z" />
    <glyph glyph-name="scommaaccent" unicode="&#x219;" horiz-adv-x="1099" 
d="M59 344h277q0 -88 65 -133t158 -45q74 0 132.5 33t58.5 102q0 26 -15.5 47t-40 36t-70 30t-89.5 25.5t-115 25.5q-59 14 -101 26.5t-89.5 35.5t-77 51.5t-49 72t-19.5 97.5q0 78 26.5 138.5t70 97.5t104.5 61t124 33t136 9q72 0 134.5 -10t122 -34t102.5 -61.5t72 -96.5
t36 -135h-277q-10 143 -198 143q-162 0 -162 -98q0 -22 9 -39.5t28.5 -31t40 -23t54.5 -19t60 -15t69 -15t69 -15.5q58 -13 101 -27t89.5 -38t76 -53.5t49 -75.5t19.5 -103q0 -81 -27.5 -145t-73 -105.5t-109 -68.5t-131 -38.5t-142.5 -11.5q-97 0 -181 19.5t-155.5 61
t-114.5 116.5t-47 176zM408 -293v191h297v-150q0 -50 -14.5 -86t-37.5 -56t-61 -31.5t-74.5 -15t-89.5 -3.5v75q51 5 79 22t38 54h-137z" />
    <glyph glyph-name="uni021A" unicode="&#x21a;" horiz-adv-x="1251" 
d="M465 0v1192h-438v270h1198v-270h-439v-1192h-321zM475 -293v191h297v-150q0 -50 -14.5 -86t-37 -56t-60.5 -31.5t-74.5 -15t-89.5 -3.5v75q51 5 78.5 22t37.5 54h-137z" />
    <glyph glyph-name="uni021B" unicode="&#x21b;" horiz-adv-x="720" 
d="M479 1376v-317h213v-195h-213v-524q0 -74 24.5 -98.5t98.5 -24.5q54 0 90 8v-227q-61 -10 -170 -10q-59 0 -104.5 5.5t-90.5 22t-74 43.5t-47 73t-18 108v624h-176v195h176v317h291zM287 -293v191h297v-150q0 -50 -14.5 -86t-37.5 -56t-61 -31.5t-74.5 -15t-89.5 -3.5v75
q51 5 79 22t38 54h-137z" />
    <glyph glyph-name="circumflex" unicode="&#x2c6;" horiz-adv-x="530" 
d="M-94 1206l227 291h266l226 -291h-240l-127 166l-131 -166h-221z" />
    <glyph glyph-name="caron" unicode="&#x2c7;" horiz-adv-x="530" 
d="M625 1497l-226 -291h-266l-227 291h229l131 -166l133 166h226z" />
    <glyph glyph-name="uni02C9" unicode="&#x2c9;" horiz-adv-x="530" 
d="M-117 1268v153h764v-153h-764z" />
    <glyph glyph-name="breve" unicode="&#x2d8;" horiz-adv-x="530" 
d="M-80 1501h133q6 -40 26.5 -69.5t50.5 -45t61.5 -23t64.5 -7.5q95 0 151 34.5t74 110.5h129q-38 -299 -364 -299q-148 0 -231 76t-95 223z" />
    <glyph glyph-name="dotaccent" unicode="&#x2d9;" horiz-adv-x="530" 
d="M127 1225v239h276v-239h-276z" />
    <glyph glyph-name="ring" unicode="&#x2da;" horiz-adv-x="530" 
d="M14 1401q0 104 73 177t177 73t178 -73t74 -177q0 -105 -73.5 -176.5t-178.5 -71.5t-177.5 71.5t-72.5 176.5zM135 1401q0 -61 35 -100t94 -39t95 39t36 100t-36 100t-95 39t-94 -39t-35 -100z" />
    <glyph glyph-name="ogonek" unicode="&#x2db;" horiz-adv-x="530" 
d="M412 -260l98 -45q-59 -74 -124 -106.5t-148 -32.5q-78 0 -129 26q-38 19 -64.5 59t-26.5 83q0 33 6.5 54.5t26.5 53.5q49 78 201 168h133q-94 -84 -132 -139.5t-38 -100.5q0 -39 23.5 -60.5t56.5 -21.5t57.5 13t59.5 49z" />
    <glyph glyph-name="tilde" unicode="&#x2dc;" horiz-adv-x="530" 
d="M500 1477h141q-9 -41 -17.5 -68.5t-25.5 -60.5t-40 -53t-60 -35t-86 -17q-41 0 -73.5 6.5t-92.5 28.5l-21 7l-19.5 6.5l-16.5 5.5t-16.5 5t-13.5 3.5t-14 3.5t-12.5 2t-13.5 1.5t-13 0.5q-68 0 -92 -86h-125q7 63 36 118t83 93t121 39q59 0 147 -37q7 -2 27 -9.5
t29.5 -10t25 -7t28 -6.5t24.5 -2q38 0 58 16t32 56z" />
    <glyph glyph-name="hungarumlaut" unicode="&#x2dd;" horiz-adv-x="530" 
d="M817 1497l-305 -291h-203l187 291h321zM393 1497l-305 -291h-203l187 291h321z" />
    <glyph glyph-name="uni0394" unicode="&#x394;" horiz-adv-x="1437" 
d="M1032 254l-332 895l-309 -895h641zM1417 0h-1397l535 1458h293z" />
    <glyph glyph-name="uni03A9" unicode="&#x3a9;" horiz-adv-x="1572" 
d="M1458 842q0 -122 -39 -231t-124 -193.5t-203 -110.5v-65h364v-242h-588v418q142 28 217.5 137.5t75.5 259.5q0 171 -104.5 289.5t-274.5 118.5q-116 0 -204.5 -57t-134.5 -150.5t-46 -206.5q0 -152 72.5 -254.5t216.5 -136.5v-418h-588v242h365v65q-173 48 -269 196
t-96 335q0 189 92.5 336.5t247 225t342.5 77.5t341.5 -76.5t245 -222.5t91.5 -336z" />
    <glyph glyph-name="uni03BC" unicode="&#x3bc;" 
d="M1104 1059v-1059h-277v147h-6q-53 -82 -131 -129t-135 -47q-109 0 -154 49v-393h-290v1432h290v-598q0 -134 43 -197t144 -63q119 0 172 71t53 232v555h291z" />
    <glyph glyph-name="pi" unicode="&#x3c0;" horiz-adv-x="1247" 
d="M1198 229v-194q-105 -51 -197 -51q-133 0 -183 72t-50 210v494h-360v-760h-265v760h-143v241h1194v-241h-164v-420q0 -26 0.5 -37.5t4.5 -34t11.5 -33t23.5 -19.5t40 -9q39 0 88 22z" />
    <glyph glyph-name="endash" unicode="&#x2013;" horiz-adv-x="1024" 
d="M0 434v250h1024v-250h-1024z" />
    <glyph glyph-name="emdash" unicode="&#x2014;" horiz-adv-x="2048" 
d="M266 434v250h1516v-250h-1516z" />
    <glyph glyph-name="quoteleft" unicode="&#x2018;" horiz-adv-x="569" 
d="M430 1120v-315h-291v313q-4 133 79 230t212 114v-135q-74 -25 -104.5 -76t-30.5 -131h135z" />
    <glyph glyph-name="quoteright" unicode="&#x2019;" horiz-adv-x="569" 
d="M139 1147v315h291v-313q4 -133 -79 -230t-212 -114v135q74 25 104.5 76t30.5 131h-135z" />
    <glyph glyph-name="quotesinglbase" unicode="&#x201a;" horiz-adv-x="569" 
d="M139 0v315h291v-313q4 -133 -79 -230t-212 -114v135q74 25 104.5 76t30.5 131h-135z" />
    <glyph glyph-name="quotedblleft" unicode="&#x201c;" horiz-adv-x="948" 
d="M401 1120v-315h-290v313q-4 134 78.5 230.5t211.5 113.5v-135q-74 -25 -104.5 -76t-30.5 -131h135zM838 1120v-315h-291v313q-4 133 79 230t212 114v-135q-74 -25 -105 -76t-31 -131h136z" />
    <glyph glyph-name="quotedblright" unicode="&#x201d;" horiz-adv-x="948" 
d="M111 1147v315h290v-313q4 -134 -78.5 -230.5t-211.5 -113.5v135q74 25 104.5 76t30.5 131h-135zM547 1147v315h291v-313q4 -133 -79 -230t-212 -114v135q74 25 104.5 76t30.5 131h-135z" />
    <glyph glyph-name="quotedblbase" unicode="&#x201e;" horiz-adv-x="948" 
d="M111 0v315h290v-313q4 -134 -78.5 -230.5t-211.5 -113.5v135q74 25 104.5 76t30.5 131h-135zM547 0v315h291v-313q4 -133 -79 -230t-212 -114v135q74 25 104.5 76t30.5 131h-135z" />
    <glyph glyph-name="dagger" unicode="&#x2020;" horiz-adv-x="1138" 
d="M430 -340v1159h-381v240h381v403h277v-403h383v-240h-383v-1159h-277z" />
    <glyph glyph-name="daggerdbl" unicode="&#x2021;" horiz-adv-x="1138" 
d="M430 -340v395h-381v240h381v524h-381v240h381v403h277v-403h383v-240h-383v-524h383v-240h-383v-395h-277z" />
    <glyph glyph-name="bullet" unicode="&#x2022;" horiz-adv-x="1026" 
d="M147 731q0 152 106.5 258.5t258.5 106.5t259.5 -106.5t107.5 -258.5t-107.5 -259t-259.5 -107t-258.5 107t-106.5 259z" />
    <glyph glyph-name="ellipsis" unicode="&#x2026;" horiz-adv-x="2048" 
d="M1544 0v315h322v-315h-322zM862 0v315h322v-315h-322zM180 0v315h322v-315h-322z" />
    <glyph glyph-name="perthousand" unicode="&#x2030;" horiz-adv-x="2349" 
d="M901 317q0 75 17.5 138t52.5 113.5t94.5 79t136.5 28.5q80 0 139 -27.5t93 -77t49.5 -112t15.5 -140.5q0 -158 -74 -253t-225 -95q-140 0 -219.5 95t-79.5 251zM307 -45l848 1524h174l-844 -1524h-178zM326 1139q0 -34 1 -59.5t4.5 -56.5t11.5 -52.5t20 -41t31.5 -29
t45.5 -9.5q24 0 43 8t31 17.5t20.5 30.5t12.5 35t6 42.5t2 41.5v44q0 34 -0.5 54t-3.5 49.5t-10.5 46.5t-19 35t-31.5 26t-46 8q-33 0 -56.5 -13t-35 -30.5t-18 -47t-7.5 -49t-1 -50.5zM141 1104q0 156 75 257t226 101q156 0 226.5 -97t70.5 -259q0 -158 -74 -253t-225 -95
q-140 0 -219.5 95t-79.5 251zM1794 352q0 -53 3.5 -89.5t14 -76.5t35 -61t62.5 -21q28 0 49 8.5t33 28t19 35.5t9.5 49t3 47.5t0.5 51.5q0 35 -0.5 54t-3.5 49t-10 47t-19 35t-31.5 26t-45.5 8q-33 0 -56.5 -13t-35.5 -31t-18.5 -47t-7.5 -49.5t-1 -50.5zM1610 317
q0 75 17.5 138t52.5 113.5t94.5 79t136.5 28.5q80 0 139 -27.5t93 -77t49.5 -112t15.5 -140.5q0 -158 -74 -253t-225 -95q-140 0 -219.5 95t-79.5 251zM1085 352q0 -53 3.5 -89.5t14 -76.5t35 -61t62.5 -21q28 0 49 8.5t33 28t19.5 35.5t10 48.5t3 48.5t0.5 51q0 34 -0.5 54
t-3.5 49.5t-10.5 46.5t-19 35t-31.5 26t-46 8q-33 0 -56.5 -13t-35.5 -31t-18.5 -47t-7.5 -49.5t-1 -50.5z" />
    <glyph glyph-name="guilsinglleft" unicode="&#x2039;" horiz-adv-x="493" 
d="M408 164l-322 256v276l322 252v-246l-185 -145l185 -147v-246z" />
    <glyph glyph-name="guilsinglright" unicode="&#x203a;" horiz-adv-x="493" 
d="M86 948l322 -252v-276l-322 -256v246l184 147l-184 145v246z" />
    <glyph glyph-name="fraction" unicode="&#x2044;" horiz-adv-x="342" 
d="M-340 -45l848 1524h174l-844 -1524h-178z" />
    <glyph glyph-name="Euro" unicode="&#x20ac;" horiz-adv-x="1138" 
d="M1180 1376l-125 -256q-145 92 -269 92q-215 0 -286 -280h499l-63 -148h-459l-2 -86h436l-63 -147h-356q65 -324 303 -324q151 0 315 129l-2 -309q-137 -82 -315 -82q-261 0 -416 168q-143 149 -187 418h-157l63 147h82v54q0 26 2 32h-149l63 148h105q49 247 202 391
q163 156 406 156q172 0 373 -103z" />
    <glyph glyph-name="afii61289" unicode="&#x2113;" horiz-adv-x="1024" 
d="M934 109q-166 -138 -352 -138q-158 0 -247 83.5t-89 217.5v84l-113 -98h-4l-100 154l215 176v487q0 173 104 287.5t264 114.5q140 0 225 -84.5t85 -223.5q0 -154 -96.5 -305t-297.5 -321v-226q0 -72 36.5 -105.5t88.5 -33.5q77 0 181 78h4zM690 1153q0 58 -22.5 96.5
t-57.5 38.5q-34 0 -58 -44.5t-24 -115.5v-346q162 170 162 371z" />
    <glyph glyph-name="trademark" unicode="&#x2122;" horiz-adv-x="2048" 
d="M815 1462v-164h-240v-680h-208v680h-240v164h688zM1901 1462v-844h-197v599h-4l-217 -599h-142l-217 599h-4v-599h-196v844h278l211 -555l211 555h277z" />
    <glyph glyph-name="Omega" unicode="&#x2126;" horiz-adv-x="1572" 
d="M1458 842q0 -122 -39 -231t-124 -193.5t-203 -110.5v-65h364v-242h-588v418q142 28 217.5 137.5t75.5 259.5q0 171 -104.5 289.5t-274.5 118.5q-116 0 -204.5 -57t-134.5 -150.5t-46 -206.5q0 -152 72.5 -254.5t216.5 -136.5v-418h-588v242h365v65q-173 48 -269 196
t-96 335q0 189 92.5 336.5t247 225t342.5 77.5t341.5 -76.5t245 -222.5t91.5 -336z" />
    <glyph glyph-name="estimated" unicode="&#x212e;" horiz-adv-x="1228" 
d="M1149 530h-827v-370q121 -121 296 -121q128 0 224 59t172 187l71 -43q-95 -148 -201.5 -212.5t-265.5 -64.5q-157 0 -278.5 75.5t-185.5 203.5t-64 286q0 159 64 287t185.5 203.5t278.5 75.5q235 0 382 -158t149 -408zM322 604h596v297q-129 123 -302 123
q-171 0 -294 -123v-297z" />
    <glyph glyph-name="partialdiff" unicode="&#x2202;" horiz-adv-x="1171" 
d="M1083 735q0 -80 -6.5 -153.5t-22.5 -151.5t-42 -143t-67.5 -124.5t-95 -100.5t-129 -65t-165.5 -24q-209 0 -339 133t-130 343q0 198 127 328t324 130q143 0 274 -98v31q0 74 -13.5 143.5t-43.5 137t-87.5 108.5t-136.5 41q-70 0 -127 -28t-120 -81l-144 164
q92 77 180 114.5t199 37.5q124 0 222 -42.5t161.5 -112.5t105 -167.5t59 -201t17.5 -218.5zM809 549v47q-101 113 -229 113q-111 0 -172.5 -80t-61.5 -195q0 -108 55 -185t158 -77q66 0 117 37t79.5 95t42 121.5t11.5 123.5z" />
    <glyph glyph-name="Delta" unicode="&#x2206;" horiz-adv-x="1437" 
d="M1032 254l-332 895l-309 -895h641zM1417 0h-1397l535 1458h293z" />
    <glyph glyph-name="product" unicode="&#x220f;" horiz-adv-x="1533" 
d="M1419 -438h-270v1790h-764v-1790h-272v2048h1306v-2048z" />
    <glyph glyph-name="summation" unicode="&#x2211;" horiz-adv-x="1378" 
d="M1323 -438h-1268v225l604 811l-579 786v226h1218v-258h-856l539 -752l-575 -780h917v-258z" />
    <glyph glyph-name="minus" unicode="&#x2212;" horiz-adv-x="1228" 
d="M98 408v219h1035v-219h-1035z" />
    <glyph glyph-name="uni2215" unicode="&#x2215;" horiz-adv-x="342" 
d="M-340 -45l848 1524h174l-844 -1524h-178z" />
    <glyph glyph-name="uni2219" unicode="&#x2219;" horiz-adv-x="569" 
d="M113 588q0 72 52 123t122 51q69 0 120.5 -51t51.5 -123q0 -67 -51.5 -119.5t-118.5 -52.5q-72 0 -124 51t-52 121z" />
    <glyph glyph-name="radical" unicode="&#x221a;" horiz-adv-x="1167" 
d="M1188 1610l-447 -2048h-249l-302 620l-108 -53l-100 215l350 160l239 -522l332 1628h285z" />
    <glyph glyph-name="infinity" unicode="&#x221e;" horiz-adv-x="1736" 
d="M1645 551q0 -177 -101.5 -293.5t-275.5 -116.5q-118 0 -213 63.5t-187 174.5q-51 -58 -85 -92t-83.5 -71t-104.5 -54t-120 -17q-175 0 -279 113.5t-104 290.5q0 175 101 287t274 112q67 0 124 -18.5t107 -57.5t85.5 -76.5t84.5 -97.5q42 56 81 97t88.5 78t108 56
t124.5 19q173 0 274 -112.5t101 -284.5zM1421 545q0 74 -43 122t-116 48q-36 0 -73 -16t-71.5 -45.5t-58.5 -54t-53 -58.5q43 -49 75 -79.5t83.5 -57.5t103.5 -27q71 0 112 48t41 120zM729 541q-146 172 -260 172q-70 0 -112 -49t-42 -119q0 -73 43 -119.5t115 -46.5
q130 0 256 162z" />
    <glyph glyph-name="integral" unicode="&#x222b;" horiz-adv-x="1286" 
d="M1063 1438q0 -57 -34.5 -94t-90.5 -37q-46 0 -73.5 28t-35.5 61t-20.5 61t-32.5 28q-39 0 -39 -76q0 -57 6.5 -165t6.5 -165v-846v-141q0 -69 -4.5 -124.5t-16 -120t-35.5 -112t-60.5 -88t-94 -62t-131.5 -21.5q-56 0 -111 19t-97 62t-42 101q0 52 38 84.5t91 32.5
q46 0 72 -28t32.5 -61t17.5 -61t31 -28q18 0 27.5 13.5t10.5 25.5t1 32q0 49 -6 147.5t-6 147.5v953v4q0 78 1 119.5t7.5 115t19 115t38.5 95.5t63 83t94 49.5t131 20.5q52 0 105.5 -17t95 -57t41.5 -94z" />
    <glyph glyph-name="approxequal" unicode="&#x2248;" 
d="M1171 971q-12 -126 -55.5 -214.5t-140.5 -140.5q-64 -34 -131 -34q-77 0 -255.5 64.5t-250.5 64.5q-51 0 -81.5 -36.5t-37.5 -88.5h-174q6 81 27.5 147t61 119.5t103 83t146.5 29.5q55 0 124 -18t124 -39.5t123 -39.5t123 -18q53 0 82.5 33t35.5 88h176zM1169 508
q-5 -60 -18 -113.5t-38 -105.5t-59.5 -90t-87 -61t-116.5 -23q-66 0 -166 32.5t-196 65.5t-152 33q-50 0 -80.5 -36t-38.5 -89h-174q3 56 16.5 110t39 105t61.5 89.5t88 61.5t114 23q66 0 160.5 -31t190 -62.5t164.5 -31.5q50 0 79 35t37 88h176z" />
    <glyph glyph-name="notequal" unicode="&#x2260;" 
d="M1153 174h-586l-159 -321l-234 116l105 205h-218v266h349l106 211h-455v264h586l162 322l231 -117l-102 -205h215v-264h-346l-107 -211h453v-266z" />
    <glyph glyph-name="lessequal" unicode="&#x2264;" 
d="M1153 233l-1092 345v264l1092 338v-277l-725 -192l725 -201v-277zM1153 -88h-1092v264h1092v-264z" />
    <glyph glyph-name="greaterequal" unicode="&#x2265;" 
d="M1153 578l-1092 -345v277l725 201l-725 192v277l1092 -338v-264zM1153 -88h-1092v264h1092v-264z" />
    <glyph glyph-name="lozenge" unicode="&#x25ca;" 
d="M1108 729l-381 -801h-244l-377 801l379 801h242zM836 729l-230 535l-229 -535l229 -536z" />
    <glyph glyph-name="dotlessj" unicode="&#xe0d6;" horiz-adv-x="569" 
d="M-39 -365v240q21 -8 64 -8q52 0 82 19.5t30 74.5v1098h291v-1112q0 -113 -31.5 -180.5t-114 -103.5t-227.5 -36q-53 0 -94 8z" />
    <glyph glyph-name="grave.cap" unicode="&#xe300;" horiz-adv-x="530" 
d="M217 1595l-315 291h321l197 -291h-203z" />
    <glyph glyph-name="acute.cap" unicode="&#xe301;" horiz-adv-x="530" 
d="M631 1886l-316 -291h-202l196 291h322z" />
    <glyph glyph-name="circumflex.cap" unicode="&#xe302;" horiz-adv-x="530" 
d="M-94 1595l227 291h266l226 -291h-240l-127 166l-131 -166h-221z" />
    <glyph glyph-name="caron.cap" unicode="&#xe303;" horiz-adv-x="530" 
d="M625 1886l-226 -291h-266l-227 291h229l131 -166l133 166h226z" />
    <glyph glyph-name="tilde.cap" unicode="&#xe304;" horiz-adv-x="530" 
d="M500 1866h141q-9 -41 -17.5 -68.5t-25.5 -60.5t-40 -53t-60 -35t-86 -17q-41 0 -73.5 6.5t-92.5 28.5l-21 7l-19.5 6.5l-16.5 5.5t-16.5 5t-13.5 3.5t-14 3.5t-12.5 2t-13.5 1.5t-13 0.5q-68 0 -92 -86h-125q7 63 36 118t83 93t121 39q59 0 147 -37q7 -2 27 -9.5
t29.5 -10t25 -7t28 -6.5t24.5 -2q38 0 58 16t32 56z" />
    <glyph glyph-name="dieresis.cap" unicode="&#xe305;" horiz-adv-x="530" 
d="M-84 1614v239h277v-239h-277zM338 1614v239h276v-239h-276z" />
    <glyph glyph-name="macron.cap" unicode="&#xe306;" horiz-adv-x="530" 
d="M-117 1657v153h764v-153h-764z" />
    <glyph glyph-name="breve.cap" unicode="&#xe307;" horiz-adv-x="530" 
d="M-80 1890h133q6 -40 26.5 -69.5t50.5 -45t61.5 -23t64.5 -7.5q95 0 151 34.5t74 110.5h129q-38 -299 -364 -299q-148 0 -231 76t-95 223z" />
    <glyph glyph-name="ring.cap" unicode="&#xe308;" horiz-adv-x="530" 
d="M14 1774q0 104 73 176.5t177 72.5q105 0 178.5 -72.5t73.5 -176.5q0 -105 -73.5 -176.5t-178.5 -71.5t-177.5 71.5t-72.5 176.5zM135 1774q0 -61 35 -100.5t94 -39.5t95 39.5t36 100.5t-36 100t-95 39t-94 -39t-35 -100z" />
    <glyph glyph-name="hungarumlaut.cap" unicode="&#xe309;" horiz-adv-x="530" 
d="M817 1886l-305 -291h-203l187 291h321zM393 1886l-305 -291h-203l187 291h321z" />
    <glyph glyph-name="dotaccent.cap" unicode="&#xe30a;" horiz-adv-x="530" 
d="M127 1614v239h276v-239h-276z" />
    <glyph glyph-name="caron.alt" unicode="&#xe30b;" horiz-adv-x="530" 
d="M549 1462l-174 -291h-201l72 291h303z" />
    <glyph glyph-name="commaaccent" unicode="&#xe30c;" horiz-adv-x="569" 
d="M154 -293v191h297v-150q0 -50 -14.5 -86t-37.5 -56t-61 -31.5t-74.5 -15t-89.5 -3.5v75q51 5 79 22t38 54h-137z" />
    <glyph glyph-name="commaaccent.alt" unicode="&#xe30d;" horiz-adv-x="569" 
d="M438 1462v-190h-297v149q0 50 14.5 86t37.5 56.5t61 32t75 15t89 3.5v-76q-51 -5 -79 -22t-38 -54h137z" />
    <glyph glyph-name="uniF8FF" unicode="&#xf8ff;" horiz-adv-x="1048" 
d="M455 240h114v137h-114v-137zM461 479h94q0 107 12 148q11 38 88 106q75 69 102 123t27 123q0 120 -72 194t-182 74q-115 0 -189 -69.5t-87 -210.5l102 -17q11 100 56 147.5t112 47.5q64 0 110 -50.5t46 -123.5q0 -41 -19.5 -75.5t-82.5 -94.5q-67 -67 -95 -121
q-26 -51 -26 -166zM946 102h-844v1264h844v-1264zM1049 1470h-1049v-1470h1049v1470z" />
    </font>
</defs>
</svg>
